Поиск

1958 Antonio Carlos Jobim - In Rio 1958 (2019) {RevOla} [24-44,1]

1958 Antonio Carlos Jobim - In Rio 1958 (2019) {RevOla} [24-44,1]
Дата издания диска:
15 апреля 2019
Издатель (лейбл):
Носитель:
WEB
Формат:
PCM
Тип рипа:
tracks+.cue
Контейнер:
APE (*.ape)
Количество каналов:
2.0
Разрядность/ЧД:
24/44,1
Битрейт аудио:
lossless
Время звучания:
00:41:56
Наличие сканов:
web
Наличие водяных знаков:
нет
Релизёр (источник):
M0p94ok

Треклист:

01. Corcovado (Remastered)  01:58
02. Voce e Eu (Remastered)  02:27
03. Desafinado (Remastered)  01:58
04. Meditacao (Remastered)  01:45
05. Samba de uma Nota So (Remastered)  01:36
06. Chega de Saudade (Remastered)  02:00
07. Rosa Morena (Remastered)  02:04
08. O Pato (Remastered)  01:57
09. Saudade de Bahia. (Remastered)  02:14
10. Manha de Carnival (Remastered)  02:32
11. O Amor em Paz (Remastered)  02:21
12. O Barquinho (Remastered)  02:28
13. Insensatez (Remastered)  02:23
14. Coisa mais Linda (Remastered)  02:48
15. Samba de Minha Terra. (Remastered)  02:17
16. Doralice (Remastered)  01:25
17. Este Seu Olhar (Remastered)  02:12
18. E Luxo So (Remastered)  01:53
19. Outra Vez (Remastered)  01:50
20. Discussao (Remastered)  01:48

Лог проверки качества
foobar2000 1.3.16 / Dynamic Range Meter 1.1.1
log date: 2019-04-24 10:38:46

--------------------------------------------------------------------------------
Analyzed: Antonio Carlos Jobim / In Rio 1958
--------------------------------------------------------------------------------

DR         Peak         RMS     Duration Track
--------------------------------------------------------------------------------
DR12      -3.87 dB   -20.32 dB      1:58 01-Corcovado
DR12      -4.05 dB   -20.10 dB      2:27 02-Voce e Eu
DR13      -3.90 dB   -20.13 dB      1:58 03-Desafinado
DR13      -3.20 dB   -19.15 dB      1:45 04-Meditacao
DR13      -4.34 dB   -19.46 dB      1:36 05-Samba de uma Nota So
DR15      -3.81 dB   -21.30 dB      2:01 06-Chega de Saudade
DR13      -3.78 dB   -20.30 dB      2:04 07-Rosa Morena
DR15      -2.96 dB   -20.47 dB      1:57 08-O Pato
DR11      -4.11 dB   -19.70 dB      2:14 09-Saudade de Bahia.
DR13      -3.52 dB   -23.61 dB      2:33 10-Manha de Carnival
DR13      -3.82 dB   -20.65 dB      2:21 11-O Amor em Paz
DR11      -3.50 dB   -17.41 dB      2:29 12-O Barquinho
DR11      -3.21 dB   -18.03 dB      2:24 13-Insensatez
DR13      -2.92 dB   -19.71 dB      2:49 14-Coisa mais Linda
DR11      -3.61 dB   -19.36 dB      2:17 15-Samba de Minha Terra.
DR15      -3.18 dB   -21.58 dB      1:26 16-Doralice
DR11      -3.98 dB   -18.66 dB      2:13 17-Este Seu Olhar
DR13      -3.35 dB   -20.69 dB      1:53 18-E Luxo So
DR14      -3.34 dB   -21.61 dB      1:51 19-Outra Vez
DR14      -3.73 dB   -20.14 dB      1:48 20-Discussao
--------------------------------------------------------------------------------

Number of tracks:  20
Official DR value: DR13

Samplerate:        44100 Hz
Channels:          2
Bits per sample:   24
Bitrate:           1378 kbps
Codec:             FLAC
================================================================================
Приватный:
Нет (DHT включён)
Размер:
415.28 Мб (435,455,483 байт) » файлов: 22
Участники:
0 раздают, 10 качают (10 участников всего)
Внешние участники:
--- [ Обновить ]
No seeders - write personal message to M0p94ok. Нет сидеров - пишите в личку M0p94ok.
19:05
147
Нет комментариев. Ваш будет первым!