Поиск

2020 Hakon Kornstad - Out of the Loop {Jazzland} [24-96]

2020 Hakon Kornstad - Out of the Loop {Jazzland} [24-96]
Место записи:
Sofienberg Church, Oslo, Norway
Дата издания диска:
27 ноября 2020
Битрейт аудио:
lossless
Доп. инфо:

Формат записи/Источник записи: [TR24][OF]
Наличие водяных знаков: Нет
Год издания/переиздания диска: 2020
Издатель (лейбл): Jazzland Recordings
Продолжительность: 01:35:15
Наличие сканов в содержимом раздачи: Только обложка альбома

Контейнер: FLAC (*.flac)
Тип рипа: tracks
Разрядность: 24/96 (#1-8); 24/44,1 (#9-16)
Формат: PCM
Количество каналов: 2.0

Источник (релизер): bandcamp

Лог проверки качества
foobar2000 1.6.2 / Dynamic Range Meter 1.1.1
log date: 2020-12-03 17:16:43

--------------------------------------------------------------------------------
Analyzed: Hakon Kornstad / Out of the Loop
--------------------------------------------------------------------------------

DR         Peak         RMS     Duration Track
--------------------------------------------------------------------------------
DR14      -2.16 dB   -20.33 dB      4:14 09-Oslo (Out of the Loop Edition)
DR13      -0.60 dB   -19.49 dB      7:24 10-Plystre (Out of the Loop Edition)
DR12      -4.94 dB   -21.55 dB      4:34 11-Noir (Out of the Loop Edition)
DR13      -2.34 dB   -18.29 dB      5:24 12-Flutter (Out of the Loop Edition)
DR12      -2.22 dB   -17.69 dB      2:52 13-Sansula (Out of the Loop Edition)
DR12      -2.60 dB   -16.69 dB      4:54 14-Damascus (Out of the Loop Edition)
DR13      -2.53 dB   -19.05 dB      7:20 15-Pearlfisher (Out of the Loop Edition)
DR14      -1.20 dB   -17.96 dB      7:47 16-Sweden (Out of the Loop Edition)
--------------------------------------------------------------------------------

Number of tracks:  8
Official DR value: DR13

Samplerate:        44100 Hz
Channels:          2
Bits per sample:   24
Bitrate:           1331 kbps
Codec:             FLAC
================================================================================

--------------------------------------------------------------------------------
Analyzed: Hakon Kornstad / Out of the Loop
--------------------------------------------------------------------------------

DR         Peak         RMS     Duration Track
--------------------------------------------------------------------------------
DR11      -1.48 dB   -16.48 dB      6:18 01-Waking Arp
DR11      -1.00 dB   -15.39 dB      8:00 02-Petrus
DR12      -0.98 dB   -16.16 dB      4:38 03-Dewey Number
DR11      -0.98 dB   -16.30 dB      6:53 04-Sibelius
DR10      -1.00 dB   -13.50 dB      6:17 05-Bremen
DR12      -0.98 dB   -16.11 dB      6:35 06-Strut
DR14      -0.98 dB   -19.91 dB      8:24 07-Nakai
DR13      -0.98 dB   -16.90 dB      3:41 08-A Movie That Never Was
--------------------------------------------------------------------------------

Number of tracks:  8
Official DR value: DR12

Samplerate:        96000 Hz
Channels:          2
Bits per sample:   24
Bitrate:           2494 kbps
Codec:             FLAC
================================================================================
No seeders - write personal message to M0p94ok. Any questions - support@pro-jazz.com.
Нет сидеров - пишите в личку M0p94ok. Есть вопросы - support@pro-jazz.com
17:52
185
Нет комментариев. Ваш будет первым!