Поиск

2019 Kevin Hays & Lionel Loueke - Hope {Edition} [24-88,2]

2019 Kevin Hays & Lionel Loueke - Hope {Edition} [24-88,2]
Стили:
Место записи:
Eastside Sound, New York City, NY, USA
Битрейт аудио:
lossless

Треклист:

01. Violeta (Hays) - 5:10
02. Hope (Loueke) - 6:11
03. Aziza Dance (Loueke) - 4:49
04. Feuilles-O (Trad.) - 5:26
05. Milton (Hays) - 6:57
06. Twins (Loueke) - 3:37
07. Veuve Malienne (Loueke) - 5:21
08. All I Have (Hays) - 4:52
09. Ghana Boy (Loueke) - 3:59
10. Loving You (Hays) - 3:55
11. Sweet Caroline (Hays) - 4:18

Доп. инфо:

Формат записи/Источник записи: [TR24][OF]
Наличие водяных знаков: Нет
Год издания/переиздания диска: 2019
Издатель (лейбл): Edition Records
Продолжительность: 00:54:35
Наличие сканов в содержимом раздачи: Только обложка альбома
Контейнер: FLAC (*.flac)
Тип рипа: tracks
Разрядность: 24/88,2
Формат: PCM
Количество каналов: 2.0

Источник (релизер): qobuz

Лог проверки качества
foobar2000 1.6.2 / Dynamic Range Meter 1.1.1
log date: 2020-12-03 16:52:31

--------------------------------------------------------------------------------
Analyzed: Kevin Hays & Lionel Loueke / Hope
--------------------------------------------------------------------------------

DR         Peak         RMS     Duration Track
--------------------------------------------------------------------------------
DR9       -0.30 dB   -10.96 dB      5:10 01-Violeta
DR10      -0.30 dB   -13.85 dB      6:11 02-Hope
DR10      -0.30 dB   -11.12 dB      4:49 03-Aziza Dance
DR10      -0.30 dB   -13.49 dB      5:26 04-Feuilles-O
DR10      -0.30 dB   -12.65 dB      6:57 05-Milton
DR10      -0.30 dB   -12.43 dB      3:37 06-Twins
DR10      -0.30 dB   -11.84 dB      5:21 07-Veuve Malienne
DR9       -0.30 dB   -11.99 dB      4:52 08-All I Have
DR12      -0.30 dB   -14.04 dB      3:59 09-Ghana Boy
DR10      -0.30 dB   -12.85 dB      3:55 10-Loving You
DR9       -0.30 dB   -12.18 dB      4:18 11-Sweet Caroline
--------------------------------------------------------------------------------

Number of tracks:  11
Official DR value: DR10

Samplerate:        88200 Hz
Channels:          2
Bits per sample:   24
Bitrate:           2594 kbps
Codec:             FLAC
================================================================================
Приватный:
Нет (DHT включён)
Размер:
980.71 Мб (1,028,344,916 байт) » файлов: 15
Участники:
0 раздают, 0 качают (0 участников всего)
Внешние участники:
12 раздают, 4 качают (16 участников всего) [ Обновить ]
For power users only: no seeders - write to support@pro-jazz.com. Для power user: нет сидеров - пишите на support@pro-jazz.com.
00:53
44
Нет комментариев. Ваш будет первым!