Поиск

1963 Joao Mello - A 'Bossa' do Balanço (2019) {RevOla} [24-44,1]

1963 Joao Mello - A 'Bossa' do Balanço (2019) {RevOla} [24-44,1]
Дата переиздания диска:
1 апреля 2019
Издатель (лейбл):
Носитель:
WEB
Формат:
PCM
Тип рипа:
tracks+.cue
Контейнер:
APE (*.ape)
Количество каналов:
2.0
Разрядность/ЧД:
24/44,1
Битрейт аудио:
lossless
Время звучания:
00:38:08
Наличие сканов:
web
Наличие водяных знаков:
нет
Страна-производитель диска (релиза):
Brazil
Релизёр (источник):
M0p94ok

Треклист:

01. Gostoso é Sambar (Remastered)  02:14
02. Está Nascendo um Samba (Remastered)  03:06
03. Um Sonho para Dois (Remastered)  02:18
04. Jogado Fora (Remastered)  03:01
05. Cravo Vermelho (Remastered)  02:05
06. História (Remastered)  02:23
07. Faz de Conta (Remastered)  02:42
08. Você Vai (Remastered)  02:20
09. Distante do Amor (Remastered)  02:42
10. Vai Sofrer Vai Chorar (Remastered)  02:43
11. Amor e Paz (Remastered)  02:26
12. O Maior Não (Remastered)  02:08

Лог проверки качества
foobar2000 1.3.16 / Dynamic Range Meter 1.1.1
log date: 2019-04-10 01:41:47

--------------------------------------------------------------------------------
Analyzed: Joao Mello / A 'Bossa' do Balanço
--------------------------------------------------------------------------------

DR         Peak         RMS     Duration Track
--------------------------------------------------------------------------------
DR13      -1.05 dB   -16.13 dB      2:15 01-Gostoso é Sambar
DR12      -1.28 dB   -16.00 dB      3:06 02-Está Nascendo um Samba
DR11      -0.53 dB   -13.80 dB      2:19 03-Um Sonho para Dois
DR11       0.00 dB   -13.98 dB      3:02 04-Jogado Fora
DR12      -1.17 dB   -15.07 dB      2:05 05-Cravo Vermelho
DR13      -1.50 dB   -17.00 dB      2:23 06-História
DR14      -0.37 dB   -16.66 dB      2:43 07-Faz de Conta
DR12      -1.62 dB   -16.04 dB      2:20 08-Você Vai
DR13      -1.39 dB   -17.60 dB      2:42 09-Distante do Amor
DR10       0.00 dB   -12.79 dB      2:44 10-Vai Sofrer Vai Chorar
DR12      -1.16 dB   -16.61 dB      2:27 11-Amor e Paz
DR13      -0.16 dB   -15.35 dB      2:08 12-O Maior Não
--------------------------------------------------------------------------------

Number of tracks:  12
Official DR value: DR12

Samplerate:        44100 Hz
Channels:          2
Bits per sample:   24
Bitrate:           1385 kbps
Codec:             FLAC
================================================================================
Приватный:
Нет (DHT включён)
Размер:
304.64 Мб (319,442,984 байт) » файлов: 14
Участники:
0 раздают, 3 качают (3 участников всего)
Внешние участники:
--- [ Обновить ]
No seeders - write personal message to M0p94ok. Нет сидеров - пишите в личку M0p94ok.
00:31
122
Нет комментариев. Ваш будет первым!