Поиск

2020 Lionel Loueke - HH {Edition} [24-96]

2020 Lionel Loueke - HH {Edition} [24-96]
Стили:
Дата записи диска:
13 февраля - 15 февраля 2019
Место записи:
Cavalicco, Udine, Italy
Издатель (лейбл):
Битрейт аудио:
lossless

Треклист:

01. Hang Up Your Hang Ups  03:20
02. Driftin'  02:59
03. Tell Me A Bedtime Story  04:47
04. Actual Proof  03:03
05. Cantaloupe Island  04:03
06. Butterfly  03:28
07. Dolphin Dance  04:30
08. Watermelon Man  05:03
09. Come Running To Me  04:40
10. Voyage Maiden  03:45
11. Rockit  03:28
12. Speak Like A Child  03:09
13. Homage to HH  04:08
14. One Finger Snap  03:07

Доп. инфо:

Формат записи/Источник записи: [TR24][OF]
Наличие водяных знаков: Нет
Год издания/переиздания диска: 2020
Продолжительность: 00:53:34
Наличие сканов в содержимом раздачи: Только обложка альбома

Контейнер: FLAC (*.flac)
Тип рипа: tracks
Разрядность: 24/96
Формат: PCM
Количество каналов: 2.0

Источник (релизер): qobuz

Лог проверки качества
foobar2000 1.6.2 / Dynamic Range Meter 1.1.1
log date: 2020-12-03 16:30:17

--------------------------------------------------------------------------------
Analyzed: Lionel Loueke / HH
--------------------------------------------------------------------------------

DR         Peak         RMS     Duration Track
--------------------------------------------------------------------------------
DR9       -0.90 dB   -11.48 dB      3:20 01-Hang Up Your Hang Ups
DR8       -0.90 dB   -10.72 dB      3:00 02-Driftin'
DR10      -0.90 dB   -12.72 dB      4:47 03-Tell Me a Bedtime Story
DR9       -0.90 dB   -12.26 dB      3:03 04-Actual Proof
DR11      -0.90 dB   -13.94 dB      4:04 05-Cantaloupe Island
DR9       -0.90 dB   -11.24 dB      3:28 06-Butterfly
DR10      -0.90 dB   -14.47 dB      4:30 07-Dolphin Dance
DR10      -0.90 dB   -13.75 dB      5:03 08-Watermelon Man
DR11      -0.90 dB   -13.96 dB      4:41 09-Come Running to Me
DR9       -0.90 dB   -11.86 dB      3:45 10-Voyage Maiden
DR12      -0.90 dB   -14.93 dB      3:28 11-Rockit
DR12      -0.90 dB   -16.15 dB      3:09 12-Speak Like a Child
DR11      -0.90 dB   -14.76 dB      4:09 13-Homage to HH
DR9       -0.90 dB   -11.87 dB      3:07 14-One Finger Snap
--------------------------------------------------------------------------------

Number of tracks:  14
Official DR value: DR10

Samplerate:        96000 Hz
Channels:          2
Bits per sample:   24
Bitrate:           2686 kbps
Codec:             FLAC
================================================================================
Приватный:
Нет (DHT включён)
Размер:
1006.71 Мб (1,055,613,358 байт) » файлов: 18
Участники:
1 раздают, 0 качают (1 участников всего)
Внешние участники:
11 раздают, 4 качают (15 участников всего) [ Обновить ]
For power users only: no seeders - write to support@pro-jazz.com. Для power user: нет сидеров - пишите на support@pro-jazz.com.
17:04
39
Нет комментариев. Ваш будет первым!