Поиск

2017 Jim Black - Malamute {Intakt} [24-96]

2017 Jim Black - Malamute {Intakt} [24-96]
Стили:
Дата записи диска:
25 марта - 26 марта и 20 августа - 21 августа 2016
Место записи:
Water Music, NJ, USA
Дата издания диска:
20 января 2017
Издатель (лейбл):
Номер по каталогу:
CD283
Носитель:
WEB
Формат:
PCM
Тип рипа:
tracks+.cue
Контейнер:
APE (*.ape)
Количество каналов:
2.0
Разрядность/ЧД:
24/96
Битрейт аудио:
lossless
Время звучания:
00:52:15
Наличие сканов:
web
Наличие водяных знаков:
нет
Релизёр (источник):
M0p94ok

Треклист:

01. Almost Awake  03:59
02. Toys Everywhere  04:34
03. Dusk Scout  03:27
04. Chase Rabbit  03:57
05. Into the Pool  02:57
06. Stray  05:51
07. Just Turned Two  05:27
08. Sought After  03:46
09. Cool Doze  02:31
10. Eat Everything  04:08
11. Full Dish  05:40
12. Pugged  02:22
13. No Leash  03:44

Лог проверки качества
foobar2000 1.6.2 / Dynamic Range Meter 1.1.1
log date: 2021-01-24 14:52:49

--------------------------------------------------------------------------------
Analyzed: Jim Black / Malamute (feat. Óskar Guðjónsson, Elias Stemeseder & Chris Tordini)
--------------------------------------------------------------------------------

DR         Peak         RMS     Duration Track
--------------------------------------------------------------------------------
DR10      -0.64 dB   -12.58 dB      3:57 01-Almost Awake
DR9       -0.20 dB   -12.35 dB      4:34 02-Toys Everywhere
DR10      -0.20 dB   -12.09 dB      3:27 03-Dusk Scout
DR10      -0.20 dB   -11.75 dB      3:57 04-Chase Rabbit
DR8       -0.20 dB   -10.23 dB      2:57 05-Into the Pool
DR11      -0.20 dB   -13.11 dB      5:51 06-Stray
DR10      -0.20 dB   -12.72 dB      5:27 07-Just Turned Two
DR10      -0.20 dB   -11.87 dB      3:46 08-Sought After
DR12      -0.20 dB   -14.43 dB      2:31 09-Cool Doze
DR11      -0.20 dB   -13.97 dB      4:08 10-Eat Everything
DR10      -0.20 dB   -12.74 dB      5:40 11-Full Dish
DR11      -0.20 dB   -13.03 dB      2:22 12-Pugged
DR12      -0.20 dB   -15.68 dB      3:44 13-No Leash
--------------------------------------------------------------------------------

Number of tracks:  13
Official DR value: DR10

Samplerate:        96000 Hz
Channels:          2
Bits per sample:   24
Bitrate:           2719 kbps
Codec:             FLAC
================================================================================
Приватный:
Нет (DHT включён)
Размер:
1.03 Гб (1,110,310,379 байт) » файлов: 15
Участники:
1 раздают, 0 качают (1 участников всего)
Внешние участники:
--- [ Обновить ]
For power users only: no seeders - write to support@pro-jazz.com. Для power user: нет сидеров - пишите на support@pro-jazz.com.
16:11
36
Нет комментариев. Ваш будет первым!