Поиск

1976 Bill Evans - Quintessence (2021) {Craft} [24-192]

1976 Bill Evans - Quintessence (2021) {Craft} [24-192]
Место записи:
Fantasy Studios, Berkeley, CA
Издатель (лейбл):
Носитель:
WEB
Формат:
PCM
Тип рипа:
tracks
Контейнер:
FLAC (*.flac)
Количество каналов:
2.0
Разрядность/ЧД:
24/192
Битрейт аудио:
lossless
Время звучания:
00:35:54
Наличие сканов:
только обложка

01 - Sweet Dulcinea Blue 06:07
02 - Martina 08:16
03 - Second Time Around 03:51
04 - A Child Is Born 07:34
05 - Bass Face 10:06

Состав:
Лог проверки качества
foobar2000 1.4.3 / Dynamic Range Meter 1.1.1
log date: 2021-12-04 13:00:26
--------------------------------------------------------------------------------
Analyzed: Bill Evans / Quintessence
--------------------------------------------------------------------------------
DR         Peak         RMS     Duration Track
--------------------------------------------------------------------------------
DR14      -0.90 dB   -19.21 dB      6:08 01-Sweet Dulcinea Blue
DR14      -0.45 dB   -18.46 dB      8:16 02-Martina
DR13      -0.22 dB   -16.71 dB      3:51 03-Second Time Around
DR15      -2.37 dB   -21.90 dB      7:34 04-A Child Is Born
DR14      -0.22 dB   -18.27 dB     10:07 05-Bass Face
--------------------------------------------------------------------------------
Number of tracks:  5
Official DR value: DR14
Samplerate:        192000 Hz
Channels:          2
Bits per sample:   24
Bitrate:           6025 kbps
Codec:             FLAC
================================================================================
Скачивание доступно после регистрации!!
Приватный:
Нет (DHT включён)
Размер:
1.50 Гб (1,608,345,678 байт) » файлов: 11
Участники:
3 раздают, 0 качают (3 участников всего)
Внешние участники:
14 раздают, 4 качают (18 участников всего) [ Обновить ]
22:55
459
Нет комментариев. Ваш будет первым!