Поиск

2021 Cameron Graves - Seven {Artistry Music} [16-48]

2021 Cameron Graves - Seven {Artistry Music} [16-48]
Стили:
Дата издания диска:
19 февраля 2021
Носитель:
WEB
Формат:
PCM
Тип рипа:
tracks
Контейнер:
FLAC (*.flac)
Количество каналов:
2.0
Разрядность/ЧД:
16/48
Битрейт аудио:
lossless
Время звучания:
00:32:30
Наличие сканов:
только обложка

Треклист:

01. Sacred Spheres (03:03)
02. Paradise Trinity (feat. Kamasi Washington) (03:12)
03. Sons of Creation (04:22)
04. Seven (feat. Kamasi Washington) (03:06)
05. The Life Carriers (02:54)
06. Super Universes (02:42)
07. Red (02:57)
08. Fairytales (02:55)
09. Master Spirits (02:04)
10. Mansion Worlds (02:48)
11. Eternal Paradise (02:33)

Состав:
  • Bass – Max Gerl
  • Drums – Mike Mitchell
  • Guitar – Colin Cook
  • Piano – Cameron Graves
  • Written-By – Cameron Graves
Лог проверки качества
foobar2000 1.3.9 / Dynamic Range Meter 1.1.1
log date: 2021-12-04 12:28:58
--------------------------------------------------------------------------------
Analyzed: Cameron Graves / Seven
--------------------------------------------------------------------------------
DR         Peak         RMS     Duration Track
--------------------------------------------------------------------------------
DR9       -0.01 dB   -11.70 dB      3:02 01-Sacred Spheres
DR9        0.00 dB   -10.88 dB      3:11 02-Paradise Trinity (feat. Kamasi Washington)
DR9        0.00 dB   -10.81 dB      4:22 03-Sons of Creation
DR9       -0.18 dB   -13.20 dB      3:05 04-Seven (feat. Kamasi Washington)
DR9        0.00 dB   -10.15 dB      2:53 05-The Life Carriers
DR9       -0.11 dB   -10.06 dB      2:42 06-Super Universes
DR8       -0.02 dB    -9.99 dB      2:56 07-Red
DR11      -2.59 dB   -19.15 dB      2:55 08-Fairytales
DR8        0.00 dB    -9.67 dB      2:03 09-Master Spirits
DR7        0.00 dB    -8.43 dB      2:47 10-Mansion Worlds
DR8        0.00 dB   -10.12 dB      2:33 11-Eternal Paradise
--------------------------------------------------------------------------------
Number of tracks:  11
Official DR value: DR9
Samplerate:        48000 Hz
Channels:          2
Bits per sample:   16
Bitrate:           1183 kbps
Codec:             FLAC
=====================================================================
По всем вопросам пишите личное сообщение пользователю M0p94ok.
17:57
87
Нет комментариев. Ваш будет первым!