Поиск

2015 Jenna Mammina & Rolf Sturm - Wicked (2019) {Blue Coast} [DSD256]

2015 Jenna Mammina & Rolf Sturm - Wicked (2019) {Blue Coast} [DSD256]
Стили:
Носитель:
WEB
Формат:
DSD
Тип рипа:
tracks
Контейнер:
DSF (*.dsf)
Количество каналов:
2.0
Разрядность/ЧД:
256 (11.2MHz/1bit)
Битрейт аудио:
lossless
Время звучания:
00:41:34
Наличие сканов:
только обложка

01. Wicked Game  04:18
02. Bluer Than Blue  03:42
03. I Love A Rainy Night  03:21
04. I Want You To Want Me  03:33
05. Hello It's Me  04:11
06. Bitter With The Sweet  04:32
07. Tin Man  04:01
08. A Place That I Call Home  03:57
09. Second Star To The Right  05:53
10. I'm Old Fashioned  04:01

Состав:
  • Jenna Mammina: Vocals
  • Rolf Sturm: Guitar
  • Recorded, Mixed and Mastered by Cookie Marenco
  • Asst. Engineers: Patrick O'Connor, Albert Llaguno, Olga Kapustina
  • Rolf Sturm plays a Cervantes Crossover 1 Signature Series guitar cervantesguitars.com
Лог проверки качества
foobar2000 1.6.5 / Замер динамического диапазона (DR) 1.1.1
Дата отчёта:  2021-11-14 17:19:55
--------------------------------------------------------------------------------
Анализ:   Jenna Mammina & Rolf Sturm / Wicked
--------------------------------------------------------------------------------
DR         Пики         RMS           Продолжительность трека
--------------------------------------------------------------------------------
DR15      -7.35 дБ   -29.15 дБ      4:19 01-Wicked Game
DR13      -7.47 дБ   -26.00 дБ      3:43 02-Bluer Than Blue
DR13      -6.92 дБ   -23.68 дБ      3:22 03-I Love A Rainy Night
DR13      -7.26 дБ   -24.41 дБ      3:33 04-I Want You To Want Me
DR15      -7.43 дБ   -26.53 дБ      4:12 05-Hello It's Me
DR12      -7.50 дБ   -23.21 дБ      4:33 06-Bitter With The Sweet
DR14      -8.85 дБ   -27.64 дБ      4:02 07-Tin Man
DR13      -7.30 дБ   -22.97 дБ      3:58 08-A Place That I Call Home
DR15      -8.91 дБ   -29.53 дБ      5:53 09-Second Star To The Right
DR13      -7.03 дБ   -23.82 дБ      4:01 10-I'm Old Fashioned
--------------------------------------------------------------------------------
Количество треков: 10
Реальные значения DR: DR14
Частота:   11289600 Гц / Частота PCM: 88200 Гц
Каналов:   2
Разрядность:   1
Битрейт:   22579 кбит/с
Кодек:   DSD256
================================================================================
Приватный:
Нет (DHT включён)
Размер:
6.58 Гб (7,069,975,885 байт) » файлов: 13
Участники:
0 раздают, 0 качают (0 участников всего)
Внешние участники:
--- [ Обновить ]
09:27
326
Нет комментариев. Ваш будет первым!