Поиск

1956 Hank Jones Trio with Guests - Bluebird (2021) {Music Manager} [24-48]

1956 Hank Jones Trio with Guests - Bluebird (2021) {Music Manager} [24-48]
Стили:
Издатель (лейбл):
Носитель:
WEB
Формат:
PCM
Тип рипа:
tracks
Контейнер:
FLAC (*.flac)
Количество каналов:
2.0
Разрядность/ЧД:
24/48
Битрейт аудио:
lossless
Время звучания:
00:42:28
Наличие сканов:
только обложка
Треклист:

01 - Little Girl Blue 05:42
02 - Bluebird 15:02
03 - How High the Moon 06:07
04 - Hank's Pranks 04:52
05 - Alpha 05:14
06 - Wine and Brandy 05:31

Состав:
  • Hank Jones — piano
  • Herbie Mann — flute (track 2)
  • Jerome Richardson — flute, tenor saxophone (tracks 5-8)
  • Donald Byrd (track 4), Matty Dice (track 4), Joe Wilder (track 3) — trumpet
  • Wendell Marshall (tracks 1 & 3-8), Eddie Jones (track 2) — bass
  • Kenny Clarke — drums
Лог проверки качества
foobar2000 1.6.2 / Dynamic Range Meter 1.1.1
log date: 2021-08-31 15:07:01
--------------------------------------------------------------------------------
Analyzed: The Hank Jones Trio / Bluebird
--------------------------------------------------------------------------------
DR         Peak         RMS     Duration Track
--------------------------------------------------------------------------------
DR15      -0.02 dB   -17.18 dB      5:43 01-Little Girl Blue
DR14      -0.42 dB   -17.87 dB     15:02 02-Bluebird
DR13      -0.05 dB   -16.87 dB      6:07 03-How High the Moon
DR12      -0.06 dB   -14.25 dB      4:52 04-Hank's Pranks
DR14      -0.07 dB   -17.03 dB      5:15 05-Alpha
DR13      -0.34 dB   -16.24 dB      5:31 06-Wine and Brandy
--------------------------------------------------------------------------------
Number of tracks:  6
Official DR value: DR14
Samplerate:        48000 Hz
Channels:          2
Bits per sample:   24
Bitrate:           968 kbps
Codec:             FLAC
================================================================================
11:03
275
Нет комментариев. Ваш будет первым!