Поиск

1975 Weather Report - Tale Spinnin’ (2018) {Dutton Vocalion} [DST64]

1975 Weather Report - Tale Spinnin’ (2018) {Dutton Vocalion} [DST64]
Стили:
Дата записи диска:
1 февраля - 4 апреля 1975
Место записи:
Wally Heder Studios, Los Angeles, CA, USA
Дата издания диска:
26 июля 1975
Издатель (лейбл):
Битрейт аудио:
lossless
Доп. инфо:

Формат записи/Источник записи: [SACD-R][OF]
Наличие водяных знаков: Нет
Издание: Reissue, Remastered
Продолжительность: 42:58
Наличие сканов в содержимом раздачи: Нет

Контейнер: ISO (*.iso)
Тип рипа: image
Разрядность: 64(2,8 MHz/1 Bit)
Формат: DST64
Количество каналов: 2.0 / 4.0 (6.0)

Источник (релизер): https://www.discogs.com/Weather-Report-Tale-Spinnin/release/12668801

Постоянно меняющийся состав Weather Report снова изменился, и несколько более тяжелый фанк-ориентированный Леон" Ндугу " Чанслер опускается в кресло барабанщика, а Алирио Лима занимает место за перкуссионными тнструментами. В результате Tale Spinnin' имеет более весомое ощущение, чем Mysterious Traveller, продолжая исследования последнего в латиноамериканском электрическом джазе/фанке. Новаторский интерес Завинула к тому, что мы сейчас называем мировой музыкой, все больше проявляется в африканской перкуссии, бессловесном вокале и песчаных звуковых эффектах "Бадии", а его синтезаторная изощренность растет вместе с доступными технологиями. Работа Уэйна Шортера над сопрано-саксофоном более оживлена, чем на предыдущих двух альбомах, и Альфонсо Джонсон больше выдвигает на первый план свой мелодичный бас. Хотя альбом и не столь изобретателен, как два его предшественника, он остается всепоглощающим продолжением направления WR середины 70-х.

Лог проверки качества
foobar2000 1.5.2 / Dynamic Range Meter 1.1.1
log date: 2020-09-20 15:23:22

--------------------------------------------------------------------------------
Analyzed: Weather Report / Tale Spining
--------------------------------------------------------------------------------

DR         Peak         RMS     Duration Track
--------------------------------------------------------------------------------
DR17      -3.83 dB   -21.58 dB      6:28 01-Man in the Green Shirt
DR9       -3.92 dB   -22.87 dB      7:18 02-Lusitanos
DR8       -3.91 dB   -21.70 dB      9:29 03-Between the Thighs
DR9       -3.95 dB   -23.77 dB      5:17 04-Badia
DR8       -4.26 dB   -21.29 dB      7:28 05-Freezing Fire
DR9       -6.93 dB   -24.99 dB      6:57 06-Five Short Stories
--------------------------------------------------------------------------------

Number of tracks:  6
Official DR value: DR10

Samplerate:        2822400 Hz / PCM Samplerate: 352800 Hz
Channels:          6
Bits per sample:   1
Bitrate:           16934 kbps
Codec:             DST64
================================================================================

--------------------------------------------------------------------------------
Analyzed: Weather Report / Tale Spining
--------------------------------------------------------------------------------

DR         Peak         RMS     Duration Track
--------------------------------------------------------------------------------
DR12      -3.36 dB   -18.69 dB      6:28 01-Man in the Green Shirt
DR14      -3.60 dB   -20.78 dB      7:18 02-Lusitanos
DR15      -3.01 dB   -20.35 dB      9:29 03-Between the Thighs
DR16      -3.18 dB   -22.52 dB      5:17 04-Badia
DR13      -3.42 dB   -18.83 dB      7:28 05-Freezing Fire
DR13      -7.65 dB   -23.19 dB      6:57 06-Five Short Stories
--------------------------------------------------------------------------------

Number of tracks:  6
Official DR value: DR14

Samplerate:        2822400 Hz / PCM Samplerate: 352800 Hz
Channels:          2
Bits per sample:   1
Bitrate:           5645 kbps
Codec:             DST64
================================================================================
No seeders - write personal message to M0p94ok. Any questions - support@pro-jazz.com.
Нет сидеров - пишите в личку M0p94ok. Есть вопросы - support@pro-jazz.com
21:22
251
21:23