Поиск

1960 Fred Kaz - Eastern Exposure (2019) {RevOla} [24-44,1]

1960 Fred Kaz - Eastern Exposure (2019) {RevOla} [24-44,1]
Дата записи диска:
25 марта 1960
Место записи:
New York City, NY, USA
Дата переиздания диска:
1 марта 2019
Издатель (лейбл):
Носитель:
WEB
Формат:
PCM
Тип рипа:
tracks+.cue
Контейнер:
APE (*.ape)
Количество каналов:
2.0
Разрядность/ЧД:
24/44,1
Битрейт аудио:
lossless
Время звучания:
00:35:44
Наличие сканов:
web
Страна-производитель диска (релиза):
USA
Релизёр (источник):
M0p94ok
Лог проверки качества
foobar2000 1.3.16 / Dynamic Range Meter 1.1.1
log date: 2019-03-26 18:40:01

--------------------------------------------------------------------------------
Analyzed: Fred Kaz / Eastern Exposure
--------------------------------------------------------------------------------

DR         Peak         RMS     Duration Track
--------------------------------------------------------------------------------
DR11      -3.09 dB   -19.47 dB      2:13 01-Sand
DR11      -2.27 dB   -15.95 dB      4:18 02-Ameer
DR11      -2.65 dB   -17.48 dB      3:45 03-Alms
DR13      -2.66 dB   -21.52 dB      2:26 04-Beneath the Sun
DR12      -2.68 dB   -18.04 dB      5:02 05-Salaam
DR11      -2.24 dB   -16.24 dB      2:56 06-One White Whale
DR12      -2.44 dB   -18.32 dB      4:19 07-Turkish Blues
DR11      -2.65 dB   -17.23 dB      3:32 08-Fez
DR12      -2.38 dB   -16.76 dB      3:24 09-Muezzin
DR13      -1.23 dB   -17.09 dB      3:53 10-Tassel
--------------------------------------------------------------------------------

Number of tracks:  10
Official DR value: DR12

Samplerate:        44100 Hz
Channels:          2
Bits per sample:   24
Bitrate:           1393 kbps
Codec:             FLAC
================================================================================
No seeders - write personal message to M0p94ok. Any questions - support@pro-jazz.com.
Нет сидеров - пишите в личку M0p94ok. Есть вопросы - support@pro-jazz.com
22:18
210
Нет комментариев. Ваш будет первым!