Поиск

1997 Fourplay - The Best Of Fourplay (Greatest Hits) (2020 Remastered) {evosound} [DSD64]

1997 Fourplay - The Best Of Fourplay (Greatest Hits) (2020 Remastered) {evosound} [DSD64]
Стили:
Дата переиздания диска:
6 ноября 2020
Битрейт аудио:
lossless
Доп. инфо:

Формат записи/Источник записи: [DSD][OF]
Наличие водяных знаков: Нет
Издание: Greatest Hits
Год издания/переиздания диска: 1997/2020 Remaster
Издатель (лейбл): evosound
Продолжительность: 01:07:38
Наличие сканов в содержимом раздачи: Только обложка альбома

Контейнер: DFF (*.dsf)
Тип рипа: tracks
Разрядность: 64(2,8 MHz/1 Bit)
Формат: DSD
Количество каналов: 2.0

Источник: pic pic

Лог проверки качества
foobar2000 1.6.2 / Dynamic Range Meter 1.1.1
log date: 2020-11-07 02:24:42

--------------------------------------------------------------------------------
Analyzed: Fourplay, Chaka Khan, Nathan East / The Best Of Fourplay (1)
          Fourplay, El Debarge / The Best Of Fourplay (2)
          Fourplay, Patti Austin, Peabo Bryson / The Best Of Fourplay (3)
          Fourplay, Phil Collins / The Best Of Fourplay (4)
          Fourplay, Take 6 / The Best Of Fourplay (5)
          Fourplay / The Best Of Fourplay (6-13)
--------------------------------------------------------------------------------

DR         Peak         RMS     Duration Track
--------------------------------------------------------------------------------
DR13      -6.82 dB   -23.63 dB      3:55 09-Between The Sheets [Edit] (feat. Chaka Khan and Nathan East)
DR11      -6.40 dB   -19.78 dB      4:12 06-After The Dance [Edit] (feat. El DeBarge)
DR13      -6.38 dB   -23.17 dB      5:01 13-The Closer I Get To You (feat. Patti Austin and Peabo Bryson)
DR13      -7.28 dB   -24.54 dB      4:00 12-Why Can't It Wait Till Morning [Remix] (feat. Phil Collins)
DR14      -6.48 dB   -22.70 dB      4:54 03-Higher Ground (feat. Take 6)
DR12      -6.26 dB   -20.48 dB      5:33 01-Max-O-Man
DR11      -8.48 dB   -21.35 dB      5:57 02-101 Eastbound
DR13      -7.57 dB   -23.19 dB      5:30 04-4 Play And Pleasure
DR12      -7.16 dB   -22.17 dB      6:25 05-Chant
DR10      -8.11 dB   -20.59 dB      5:33 07-Bali Run
DR15      -6.76 dB   -24.27 dB      4:37 08-Play Lady Play
DR12      -7.94 dB   -22.94 dB      5:47 10-Amoroso
DR14      -7.46 dB   -25.47 dB      6:15 11-Any Time Of Day
--------------------------------------------------------------------------------

Number of tracks:  13
Official DR value: DR12

Samplerate:        2822400 Hz / PCM Samplerate: 176400 Hz
Channels:          2
Bits per sample:   1
Bitrate:           5645 kbps
Codec:             DSD64
================================================================================
No seeders - write personal message to M0p94ok. Any questions - support@pro-jazz.com.
Нет сидеров - пишите в личку M0p94ok. Есть вопросы - support@pro-jazz.com
23:17
207
Нет комментариев. Ваш будет первым!