Вы используете незарегистрированную версию компонента "Вкладки"!

Поиск

2018 Trio Heinz Herbert - Yes {Intakt} [24-96]

2018 Trio Heinz Herbert - Yes {Intakt} [24-96]
Дата записи диска:
весна 2018
Место записи:
Suburban Sound Studio, Winterthur
Дата издания диска:
16 ноября 2018
Издатель (лейбл):
Номер по каталогу:
317
Носитель:
WEB
Формат:
PCM
Тип рипа:
tracks+.cue
Контейнер:
APE (*.ape)
Количество каналов:
2.0
Разрядность/ЧД:
24/96
Битрейт аудио:
lossless
Время звучания:
00:49:48
Наличие сканов:
web
Страна-производитель диска (релиза):
Switzerland
Релизёр (источник):
M0p94ok
Лог проверки качества
foobar2000 1.6.2 / Dynamic Range Meter 1.1.1
log date: 2020-12-19 19:09:33

--------------------------------------------------------------------------------
Analyzed: Trio Heinz Herbert / Yes
--------------------------------------------------------------------------------

DR         Peak         RMS     Duration Track
--------------------------------------------------------------------------------
DR6       -0.08 dB    -9.11 dB      8:51 01-J
DR5       -0.08 dB    -6.61 dB      2:02 02-J: J**
DR5       -0.08 dB    -7.97 dB      5:15 03-Kohäsion
DR8       -0.08 dB   -11.53 dB      3:37 04-Window for the Curious
DR9       -0.08 dB   -14.75 dB      3:45 05-Talk
DR7       -0.08 dB   -11.36 dB     10:02 06-Silo Partikel
DR6       -0.08 dB    -8.18 dB      4:36 07-Gravity
DR6       -0.08 dB    -8.67 dB      3:15 08-Loveliness
DR8       -0.08 dB   -10.50 dB      4:49 09-Darkspace
DR6       -0.08 dB    -7.63 dB      3:41 10-Tolerance
--------------------------------------------------------------------------------

Number of tracks:  10
Official DR value: DR7

Samplerate:        96000 Hz
Channels:          2
Bits per sample:   24
Bitrate:           2852 kbps
Codec:             FLAC
================================================================================
Any questions - support@pro-jazz.com. Есть вопросы - support@pro-jazz.com
20:32
248
Нет комментариев. Ваш будет первым!