Notice: Constant LANG_TORRENT_ERROR_UPLOAD_FILE already defined in /home/admin/web/pro-jazz.com/public_html/system/languages/ru/controllers/tracker/tracker.php on line 19
2018 Fred Frith Trio - Closer to the Ground {Intakt} [24-44,1],

Поиск

2018 Fred Frith Trio - Closer to the Ground {Intakt} [24-44,1]

2018 Fred Frith Trio - Closer to the Ground {Intakt} [24-44,1]
Дата записи диска:
13 января - 15 января 2018
Место записи:
Sharkbite Studios, Oakland, California, USA
Дата издания диска:
21 сентября 2018
Издатель (лейбл):
Номер по каталогу:
312
Носитель:
WEB
Формат:
PCM
Тип рипа:
tracks
Контейнер:
FLAC (*.flac)
Количество каналов:
2.0
Разрядность/ЧД:
24/44,1
Битрейт аудио:
lossless
Время звучания:
00:50:57
Наличие сканов:
только обложка
Наличие водяных знаков:
нет
Страна-производитель диска (релиза):
USA
Релизёр (источник):
M0p94ok

Треклист:

1. Bones to Pick with Graveyards 05:16
2. Alle planmässigen Ziele werden erreicht 05:06
3. In the Grip of It 04:56
4. Ruhebereich 06:23
5. Stars like Trees 05:55
6. A Path Made by Walking 06:49
7. Betting on the World 02:39
8. Love and Other Embers 07:34
9. Up in Smoke 06:18

Лог проверки качества
foobar2000 1.6.2 / Dynamic Range Meter 1.1.1
log date: 2020-12-19 18:04:23

--------------------------------------------------------------------------------
Analyzed: Fred Frith Trio / Closer to the Ground
--------------------------------------------------------------------------------

DR         Peak         RMS     Duration Track
--------------------------------------------------------------------------------
DR11      -0.10 dB   -13.91 dB      5:16 01-Bones to Pick with Graveyards
DR8       -0.10 dB   -11.88 dB      5:06 02-Alle planmässigen Ziele werden erreicht
DR11      -0.10 dB   -13.32 dB      4:56 03-In the Grip of It
DR13      -0.10 dB   -16.48 dB      6:24 04-Ruhebereich
DR11      -0.10 dB   -15.46 dB      5:56 05-Stars Like Trees
DR9       -0.10 dB   -12.00 dB      6:50 06-A Path Made by Walking
DR8       -0.10 dB   -10.67 dB      2:39 07-Betting on the World
DR9       -0.10 dB   -12.52 dB      7:35 08-Love and Other Embers
DR9       -0.10 dB   -13.20 dB      6:18 09-Up in Smoke
--------------------------------------------------------------------------------

Number of tracks:  9
Official DR value: DR10

Samplerate:        44100 Hz
Channels:          2
Bits per sample:   24
Bitrate:           1419 kbps
Codec:             FLAC
================================================================================
Приватный:
Нет (DHT включён)
Размер:
542.21 Мб (568,545,098 байт) » файлов: 11
Участники:
5 раздают, 0 качают (5 участников всего)
Внешние участники:
--- [ Обновить ]
For power users only: no seeders - write to support@pro-jazz.com. Для power user: нет сидеров - пишите на support@pro-jazz.com.
19:19
79
Нет комментариев. Ваш будет первым!