Вы используете незарегистрированную версию компонента "Вкладки"!

Поиск

1974 Milt Jackson with Hubert Laws - Goodbye (2017) {King} [24-192]

1974 Milt Jackson with Hubert Laws - Goodbye (2017) {King} [24-192]
Дата записи диска:
12 декабря 1972 - 6 декабря 1973
Место записи:
Van Gelder Recording Studio, Englewood Cliffs, NJ
Дата издания диска:
июнь 1974
Издатель (лейбл):
Доп. инфо:

Формат записи/Источник записи: [TR24][OF]
Издание: Remastered
Год издания/переиздания диска: 1974/2017
Продолжительность: 00:36:45
Наличие сканов в содержимом раздачи: Нет

Контейнер: FLAC (*.flac)
Тип рипа: tracks
Разрядность: 24/192
Количество каналов: 2.0

Источник (релизер): KING JAZZ & CLASSICS

Лог проверки качества
foobar2000 1.4.3 / Dynamic Range Meter 1.1.1
log date: 2020-02-08 22:40:25

--------------------------------------------------------------------------------
Analyzed: Milt Jackson with Hubert Laws / Goodbye
--------------------------------------------------------------------------------

DR         Peak         RMS     Duration Track
--------------------------------------------------------------------------------
DR12      -0.01 dB   -13.60 dB      8:00 01-Detour Ahead
DR13      -0.01 dB   -15.63 dB      9:22 02-Goodbye
DR11      -0.01 dB   -13.18 dB      5:50 03-Old Devil Moon
DR10      -0.01 dB   -13.25 dB      6:47 04-SKJ
DR11      -0.01 dB   -13.19 dB      6:46 05-Opus de Funk
--------------------------------------------------------------------------------

Number of tracks:  5
Official DR value: DR11

Samplerate:        192000 Hz
Channels:          2
Bits per sample:   24
Bitrate:           2347 kbps
Codec:             FLAC
================================================================================
Any questions - support@pro-jazz.com. Есть вопросы - support@pro-jazz.com
11:41
309
Нет комментариев. Ваш будет первым!