Вы используете незарегистрированную версию компонента "Вкладки"!

Поиск

1960 Wes Montgomery - The Incredible Jazz Guitar Of Wes Montgomery (2020) {RevOla} [24-96]

1960 Wes Montgomery - The Incredible Jazz Guitar Of Wes Montgomery (2020) {RevOla} [24-96]
Стили:
Дата записи диска:
26 & 28 января 1960
Место записи:
Reeves Sound Studios, New York City
Издатель (лейбл):
Доп. инфо:

Формат записи/Источник записи: [TR24][OF]
Издание: Remastered
Год издания/переиздания диска: 1960/2020
Издатель (лейбл): RevOla
Продолжительность: 00:44:13
Наличие сканов в содержимом раздачи: Нет

Контейнер: FLAC (*.flac)
Тип рипа: tracks
Разрядность: 24/96
Количество каналов: 2.0

Источник (релизер): Qobuz

Лог проверки качества
foobar2000 1.4.3 / Dynamic Range Meter 1.1.1
log date: 2020-02-09 17:48:33

--------------------------------------------------------------------------------
Analyzed: Wes Montgomery / The Incredible Jazz Guitar Of Wes Montgomery
--------------------------------------------------------------------------------

DR         Peak         RMS     Duration Track
--------------------------------------------------------------------------------
DR12      -0.85 dB   -15.38 dB      4:30 01-Airegin (Remastered)
DR12      -3.12 dB   -18.58 dB      5:25 02-D-Natural Blues (Remastered)
DR14      -2.76 dB   -23.41 dB      4:45 03-Polka Dots And Moonbeams (Remastered)
DR12      -3.21 dB   -17.31 dB      6:17 04-Four On Six (Remastered)
DR12      -0.71 dB   -15.69 dB      7:27 05-West Coast Blues (Remastered)
DR11      -4.82 dB   -20.50 dB      4:55 06-In Your Own Sweet Way (Remastered)
DR13      -0.55 dB   -17.28 dB      4:34 07-Mister Walker (Remastered)
DR13      -2.49 dB   -18.27 dB      6:23 08-Gone With The Wind (Remastered)
--------------------------------------------------------------------------------

Number of tracks:  8
Official DR value: DR12

Samplerate:        96000 Hz
Channels:          2
Bits per sample:   24
Bitrate:           2580 kbps
Codec:             FLAC
================================================================================
Any questions - support@pro-jazz.com. Есть вопросы - support@pro-jazz.com
12:34
281
Нет комментариев. Ваш будет первым!