Вы используете незарегистрированную версию компонента "Вкладки"!

Поиск

1972 Johnny Hammond - Wild Horse Rock Steady (2017) {King} [24-192]

1972 Johnny Hammond - Wild Horse Rock Steady (2017) {King} [24-192]
Стили:
Дата записи диска:
октябрь-ноябрь 1971
Место записи:
Van Gelder Recording Studio, Englewood Cliffs, NJ
Издатель (лейбл):
Доп. инфо:

Формат записи/Источник записи: [TR24][OF]
Издание: Remastered
Год издания/переиздания диска: 1972/2017
Издатель (лейбл): King Record Co
Продолжительность: 00:38:09
Наличие сканов в содержимом раздачи: Нет

Контейнер: FLAC (*.flac)
Тип рипа: tracks
Разрядность: 24/192
Количество каналов: 2.0

Источник (релизер): KING JAZZ & CLASSICS

Лог проверки качества
foobar2000 1.4.3 / Dynamic Range Meter 1.1.1
log date: 2020-02-08 06:52:38

--------------------------------------------------------------------------------
Analyzed: Johnny Hammond / Wild Horses Rock Steady
--------------------------------------------------------------------------------

DR         Peak         RMS     Duration Track
--------------------------------------------------------------------------------
DR11      -0.10 dB   -13.58 dB      6:48 01-Rock Steady
DR9       -0.10 dB   -12.64 dB      7:25 02-Who Is Sylvia?
DR10      -0.10 dB   -12.44 dB      4:31 03-Peace Train
DR11      -0.10 dB   -13.65 dB      7:35 04-I Don't Know How to Love Him
DR10      -0.10 dB   -11.69 dB      5:27 05-It's Impossible
DR11      -0.10 dB   -13.77 dB      6:25 06-Wild Horses
--------------------------------------------------------------------------------

Number of tracks:  6
Official DR value: DR10

Samplerate:        192000 Hz
Channels:          2
Bits per sample:   24
Bitrate:           5381 kbps
Codec:             FLAC
================================================================================
Any questions - support@pro-jazz.com. Есть вопросы - support@pro-jazz.com
15:57
322
Нет комментариев. Ваш будет первым!