Вы используете незарегистрированную версию компонента "Вкладки"!

Поиск

2020 Chiara Pancaldi - Precious {Challenge} [24-88,2]

2020 Chiara Pancaldi - Precious {Challenge} [24-88,2]
Стили:
Издатель (лейбл):
Доп. инфо:

Формат записи/Источник записи: [TR24][OF]
Наличие водяных знаков: Нет
Год издания: 2020
Издатель (лейбл): Challenge Records
Продолжительность: 00:42:25
Наличие сканов в содержимом раздачи: Только обложка альбома
Контейнер: FLAC (*.flac)
Тип рипа: tracks
Разрядность: 24/88.2
Формат: PCM
Количество каналов: 2.0
Источник (релизер): highresaudio.com

Лог проверки качества
foobar2000 1.4.8 / Dynamic Range Meter 1.1.1
log date: 2020-02-07 18:42:21

--------------------------------------------------------------------------------
Analyzed: Chiara Pancaldi / Precious
--------------------------------------------------------------------------------

DR         Peak         RMS     Duration Track
--------------------------------------------------------------------------------
DR10      -0.44 dB   -13.36 dB      4:29 01-Better to Grow
DR10      -0.61 dB   -14.22 dB      4:32 02-Nothing but Smiles
DR10      -0.54 dB   -13.29 dB      4:59 03-Urban Folk Song
DR9       -1.03 dB   -12.90 dB      4:21 04-Adeus
DR9       -2.15 dB   -14.63 dB      3:31 05-Precious
DR11      -0.54 dB   -13.08 dB      6:03 06-The Distance Between Us
DR9       -0.61 dB   -12.22 dB      5:03 07-Songs Don't Grow Old Alone
DR10      -0.85 dB   -13.28 dB      5:03 08-You and I (We Can Conquer the World)
DR10      -1.16 dB   -13.83 dB      4:29 09-Our Time
--------------------------------------------------------------------------------

Number of tracks:  9
Official DR value: DR10
Samplerate:        88200 Hz
Channels:          2
Bits per sample:   24
Bitrate:           2525 kbps
Codec:             FLAC
================================================================================
Any questions - support@pro-jazz.com. Есть вопросы - support@pro-jazz.com
12:02
331
Нет комментариев. Ваш будет первым!