Вы используете незарегистрированную версию компонента "Вкладки"!

Поиск

1970 Hubert Laws - Afro Classic (2017) {King} [24-192]

1970 Hubert Laws - Afro Classic (2017) {King} [24-192]
Стили:
Место записи:
Van Gelder Studios, Englewood Cliffs, NJ
Издатель (лейбл):
Доп. инфо:

Формат записи/Источник записи: [TR24][OF]
Издание: Remastered
Год издания/переиздания диска: 1970/2017
Продолжительность: 00:37:55
Наличие сканов в содержимом раздачи: Нет

Контейнер: FLAC (*.flac)
Тип рипа: tracks
Разрядность: 24/192
Количество каналов: 2.0

Источник (релизер): KING JAZZ & CLASSICS

Лог проверки качества
foobar2000 1.4.3 / Dynamic Range Meter 1.1.1
log date: 2020-02-07 07:53:58

--------------------------------------------------------------------------------
Analyzed: Hubert Laws / Afro-Classic
--------------------------------------------------------------------------------

DR         Peak         RMS     Duration Track
--------------------------------------------------------------------------------
DR10      -0.01 dB   -13.79 dB      8:00 01-Fire and Rain
DR10      -3.56 dB   -18.23 dB      3:48 02-Allegro from Concerto No. 3 in D
DR12      -1.08 dB   -16.11 dB      7:34 03-Theme from Love Story
DR11      -0.01 dB   -14.97 dB     15:16 04-Passacaglia in C Minor
DR11      -3.31 dB   -18.36 dB      3:20 05-Flute Sonata in F
--------------------------------------------------------------------------------

Number of tracks:  5
Official DR value: DR11

Samplerate:        192000 Hz
Channels:          2
Bits per sample:   24
Bitrate:           5326 kbps
Codec:             FLAC
================================================================================
Any questions - support@pro-jazz.com. Есть вопросы - support@pro-jazz.com
11:06
289
Нет комментариев. Ваш будет первым!