Вы используете незарегистрированную версию компонента "Вкладки"!

Поиск

1974 Harry Beckett - Joy Unlimited (2020) {Cadillac} [24-96]

1974 Harry Beckett - Joy Unlimited (2020) {Cadillac} [24-96]
Дата записи диска:
12 марта 1974
Место записи:
Chalk Farm Studio, London, UK
Номер по каталогу:
SGC 1004
Битрейт аудио:
lossless
Доп. инфо:

Формат записи/Источник записи: [TR24][OF]
Год издания/переиздания диска: 1974/2020
Издатель (лейбл): Cadillac Records
Продолжительность: 00:40:50
Наличие сканов в содержимом раздачи: Буклет PDF

Контейнер: FLAC (*.flac)
Тип рипа: tracks
Разрядность: 24/96
Количество каналов: 2.0

Источник (релизер): Qobuz

Лог проверки качества
foobar2000 1.3.16 / Dynamic Range Meter 1.1.1
log date: 2020-08-07 19:06:43

--------------------------------------------------------------------------------
Analyzed: Harry Beckett / Joy Unlimited
--------------------------------------------------------------------------------

DR         Peak         RMS     Duration Track
--------------------------------------------------------------------------------
DR11      -1.24 dB   -16.08 dB      8:43 01-No Time for Hello
DR12      -1.05 dB   -15.03 dB      6:27 02-Glowing
DR10      -5.92 dB   -20.44 dB      1:15 03-Changes Are Still Happening
DR12      -1.31 dB   -16.76 dB      8:08 04-Bracelets of Sound
DR12      -0.04 dB   -15.15 dB      6:57 05-Ring Within Rings
DR12      -1.14 dB   -16.81 dB      9:20 06-Not Just Tomorrow
--------------------------------------------------------------------------------

Number of tracks:  6
Official DR value: DR11

Samplerate:        96000 Hz
Channels:          2
Bits per sample:   24
Bitrate:           2936 kbps
Codec:             FLAC
================================================================================
Any questions - support@pro-jazz.com. Есть вопросы - support@pro-jazz.com
19:16
251
Нет комментариев. Ваш будет первым!