Поиск

2020 Matthieu Bordenave, Patrice Moret, Florian Weber - La Traversée {ECM} [24-88,2]

2020 Matthieu Bordenave, Patrice Moret, Florian Weber - La Traversée {ECM} [24-88,2]
Стили:
Дата издания диска:
25 сентября 2020
Издатель (лейбл):
Битрейт аудио:
lossless

Треклист:

1. River (4:44)
2. Archipel (7:53)
3. Le temps divisé (2:46)
4. Dans mon pays (4:35)
5. The Path (4:54)
6. Ventoux (5:46)
7. Incendie blanc (2:19)
8. Chaleur grise (5:05)
9. River (4:47)

Доп. инфо:

Формат записи/Источник записи: [TR24][OF]
Наличие водяных знаков: Нет
Год издания: 2020
Продолжительность: 00:42:43
Наличие сканов в содержимом раздачи: Буклет PDF
Контейнер: FLAC (*.flac)
Тип рипа: tracks
Разрядность: 24/88.2
Формат: PCM
Количество каналов: 2.0
Источник (релизер): highresaudio.com

Лог проверки качества
foobar2000 1.4.8 / Dynamic Range Meter 1.1.1
log date: 2020-09-25 15:25:33

--------------------------------------------------------------------------------
Analyzed: Matthieu Bordenave / La traversée
--------------------------------------------------------------------------------

DR         Peak         RMS     Duration Track
--------------------------------------------------------------------------------
DR13      -4.29 dB   -22.74 dB      4:44 01-River
DR13      -0.50 dB   -17.59 dB      7:53 02-Archipel
DR12      -2.20 dB   -19.96 dB      2:46 03-Le temps divisé
DR13      -1.19 dB   -18.72 dB      4:35 04-Dans mon pays
DR13      -0.80 dB   -19.61 dB      4:54 05-The Path
DR13      -2.08 dB   -21.61 dB      5:46 06-Ventoux
DR13      -1.00 dB   -18.64 dB      2:19 07-Incendie blanc
DR13      -2.88 dB   -21.91 dB      5:05 08-Chaleur grise
DR14      -0.55 dB   -19.38 dB      4:47 09-River
--------------------------------------------------------------------------------

Number of tracks:  9
Official DR value: DR13
Samplerate:        88200 Hz
Channels:          2
Bits per sample:   24
Bitrate:           2170 kbps
Codec:             FLAC
================================================================================
Приватный:
Нет (DHT включён)
Размер:
674.80 Мб (707,580,021 байт) » файлов: 12
Участники:
3 раздают, 0 качают (3 участников всего)
Внешние участники:
5 раздают, 2 качают (7 участников всего) [ Обновить ]
No seeders - write personal message to M0p94ok. Any questions - support@pro-jazz.com.
Нет сидеров - пишите в личку M0p94ok. Есть вопросы - support@pro-jazz.com
14:52
196
Нет комментариев. Ваш будет первым!