Поиск

2017 Made To Break - Trebuchet {Trost} [24-44.1]

2017 Made To Break - Trebuchet {Trost} [24-44.1]
Стили:
Дата издания диска:
13 ноября 2017
Носитель:
WEB
Формат:
PCM
Тип рипа:
tracks
Контейнер:
FLAC (*.flac)
Количество каналов:
2.0
Разрядность/ЧД:
24/44,1
Битрейт аудио:
lossless
Время звучания:
00:50:24
Наличие сканов:
только обложка

This album is available on our DC++ hub: dc.pro-jazz.com
Этот альбом доступен на нашем DC++ хабе: dc.pro-jazz.com

Треклист:

1. Hydroplane (for Shellac) 19:23
2. Contact Sheet (for Susan Sontag) 18:33
3. Slipping Words Against Silence (for Kerry James Marshall) 12:26

Состав:
  • Ken Vandermark — reeds
  • Christof Kurzmann — electronics (lloopp)
  • Jasper Stadhouders — bass
  • Tim Daisy — drums
Лог проверки качества
foobar2000 1.6.2 / Dynamic Range Meter 1.1.1
log date: 2021-08-14 10:20:37
--------------------------------------------------------------------------------
Analyzed: MADE TO BREAK / Trebuchet
--------------------------------------------------------------------------------
DR         Peak         RMS     Duration Track
--------------------------------------------------------------------------------
DR10      -0.40 dB   -14.00 dB     19:24 01-Hydroplane (for Shellac)
DR10      -0.40 dB   -14.29 dB     18:34 02-Contact Sheet (for Susan Sontag)
DR8       -0.40 dB   -11.76 dB     12:27 03-Slipping Words Against Silence (for Kerry James Marshall)
--------------------------------------------------------------------------------
Number of tracks:  3
Official DR value: DR9
Samplerate:        44100 Hz
Channels:          2
Bits per sample:   24
Bitrate:           1525 kbps
Codec:             FLAC
================================================================================
03:11
215
Нет комментариев. Ваш будет первым!