Поиск

2015 VA - Music for Ironing on a Rainy Sunday Afternoon {Winter&Winter} [24-44,1]

2015 VA - Music for Ironing on a Rainy Sunday Afternoon {Winter&Winter} [24-44,1]
Стили:
Дата издания диска:
2 октября 2015
Носитель:
WEB
Формат:
PCM
Тип рипа:
tracks+.cue
Количество каналов:
2.0
Разрядность/ЧД:
24/44,1
Битрейт аудио:
lossless
Время звучания:
00:53:20
Наличие сканов:
да
Страна-производитель диска (релиза):
USA
Релизёр (источник):
M0p94ok
Лог проверки качества
foobar2000 1.3.16 / Dynamic Range Meter 1.1.1
log date: 2019-03-13 17:38:30

--------------------------------------------------------------------------------
Analyzed: Bill Frisell / Music for Ironing on a Rainy Sunday Afternoon (1)
          Cassandra Wilson / Music for Ironing on a Rainy Sunday Afternoon (2)
          Fumio Yasuda / Music for Ironing on a Rainy Sunday Afternoon (3-9)
          John Hollenbeck / Music for Ironing on a Rainy Sunday Afternoon (10-11)
          Paul Motian / Music for Ironing on a Rainy Sunday Afternoon (12)
          Thomas Morgan / Music for Ironing on a Rainy Sunday Afternoon (13)
          Uri Caine Ensemble / Music for Ironing on a Rainy Sunday Afternoon (14-15)
          Uri Caine / Music for Ironing on a Rainy Sunday Afternoon (16)
--------------------------------------------------------------------------------

DR         Peak         RMS     Duration Track
--------------------------------------------------------------------------------
DR11      -0.40 dB   -13.31 dB      2:50 01-Tico Tico
DR10      -1.03 dB   -13.88 dB      5:16 16-I've Grown Accustomed to His Face
DR10      -3.12 dB   -15.63 dB      2:34 02-Teacher's Pet
DR11      -0.40 dB   -16.86 dB      4:17 04-You Make Me Feel so Young
DR14      -0.40 dB   -20.01 dB      2:49 06-Im weissen Rössl
DR9       -0.46 dB   -13.27 dB      3:57 10-Blue Tail Fly
DR12      -0.92 dB   -17.82 dB      3:37 12-We Kiss in a Shadow
DR14      -0.40 dB   -20.10 dB      3:36 14-A Child Is Born
DR10      -0.40 dB   -13.03 dB      2:01 15-The Night They Invented Champagne
DR8       -0.40 dB   -11.80 dB      4:24 05-Oh, Dear! What Can the Matter Be
DR11      -1.01 dB   -16.05 dB      3:35 07-Hush-A-Bye Baby
DR10      -0.82 dB   -13.65 dB      3:17 11-Look to the Rainbow
DR12      -0.40 dB   -16.99 dB      2:38 03-It's Been a Long, Long Time
DR11      -0.40 dB   -13.64 dB      3:54 09-Let's Call the Whole Thing Off
DR10      -0.40 dB   -12.10 dB      3:14 13-By the Light of the Silvery Moon
DR10      -0.40 dB   -12.43 dB      1:26 08-Everybody's Doin' It Now
--------------------------------------------------------------------------------

Number of tracks:  16
Official DR value: DR11

Samplerate:        44100 Hz
Channels:          2
Bits per sample:   24
Bitrate:           1467 kbps
Codec:             FLAC
================================================================================
No seeders - write personal message to M0p94ok. Any questions - support@pro-jazz.com.
Нет сидеров - пишите в личку M0p94ok. Есть вопросы - support@pro-jazz.com
16:31
179
Нет комментариев. Ваш будет первым!