Поиск

1958 Silvia Telles - Silvia! (2018) {RevOla} [24-44,1]

1958 Silvia Telles - Silvia! (2018) {RevOla} [24-44,1]
Издатель (лейбл):
Носитель:
WEB
Формат:
PCM
Тип рипа:
image+.cue
Количество каналов:
2.0
Разрядность/ЧД:
24/44,1
Битрейт аудио:
lossless
Время звучания:
00:30:39
Наличие сканов:
web
Релизёр (источник):
M0p94ok
Лог проверки качества
foobar2000 1.5.5 / Dynamic Range Meter 1.1.1
log date: 2020-10-27 18:23:33

--------------------------------------------------------------------------------
Analyzed: Silvia Telles / Silvia!
--------------------------------------------------------------------------------

DR         Peak         RMS     Duration Track
--------------------------------------------------------------------------------
DR6        0.00 dB   -10.18 dB      3:04 01-Cala Meu Amor (remastered)Sylvia Telles
DR7        0.00 dB    -9.96 dB      2:15 02-E Preciso Dizer Adeus (remastered)Sylvia Telles
DR5        0.00 dB    -8.22 dB      2:20 03-Magoa (remastered)Sylvia Telles
DR5        0.00 dB    -8.29 dB      1:55 04-Caminhos Cruzados (remastered)Sylvia Telles
DR4        0.00 dB    -7.04 dB      2:48 05-Amargura (remastered)Sylvia Telles
DR7        0.00 dB   -10.13 dB      2:32 06-Segredo (remastered)Sylvia Telles
DR5        0.00 dB    -9.19 dB      3:01 07-Quero Te Assim (remastered)Sylvia Telles
DR5        0.00 dB    -9.33 dB      2:08 08-Neste Mesmo Lugar (remastered)Sylvia Telles
DR6        0.00 dB    -9.94 dB      2:08 09-Estrada Do Sol (remastered)Sylvia Telles
DR6        0.00 dB    -8.82 dB      2:54 10-Aula de Matematica (remastered)Sylvia Telles
DR5        0.00 dB    -8.68 dB      2:37 11-Suas Maos (remastered)Sylvia Telles
DR5        0.00 dB    -8.96 dB      3:03 12-Bom Dia Tristeza (remastered)Sylvia Telles
--------------------------------------------------------------------------------

Number of tracks:  12
Official DR value: DR5

Samplerate:        44100 Hz
Channels:          2
Bits per sample:   24
Bitrate:           1411 kbps
Codec:             FLAC
================================================================================
No seeders - write personal message to M0p94ok. Any questions - support@pro-jazz.com.
Нет сидеров - пишите в личку M0p94ok. Есть вопросы - support@pro-jazz.com
19:37
223
Нет комментариев. Ваш будет первым!