Вы используете незарегистрированную версию компонента "Вкладки"!

Поиск

1973 Erroll Garner - Magician (2020) {Mack Avenue} [24-96]

1973 Erroll Garner - Magician (2020) {Mack Avenue} [24-96]
Стили:
Издатель (лейбл):
Битрейт аудио:
lossless
Доп. инфо:

Формат записи/Источник записи: [TR24][OF]
Издание: Remastered
Год издания/переиздания диска: 1973/2020
Жанр: Jazz
Издатель (лейбл): Mack Avenue Records
Продолжительность: 00:42:16
Наличие сканов в содержимом раздачи: Нет

Контейнер: FLAC (*.flac)
Тип рипа: tracks
Разрядность: 24/96
Количество каналов: 2.0

Источник (релизер): Qobuz

Лог проверки качества
foobar2000 1.4.3 / Dynamic Range Meter 1.1.1
log date: 2020-05-26 13:10:38

--------------------------------------------------------------------------------
Analyzed: Erroll Garner / Magician (Octave Remastered Series)
--------------------------------------------------------------------------------

DR         Peak         RMS     Duration Track
--------------------------------------------------------------------------------
DR10      -0.50 dB   -13.26 dB      4:34 01-(They Long to Be) Close to You (Remastered 2020)
DR12      -0.50 dB   -14.66 dB      4:25 02-It Gets Better Every Time (Remastered 2020)
DR12      -0.50 dB   -14.80 dB      4:19 03-Someone to Watch Over Me (Remastered 2020)
DR11      -0.50 dB   -13.23 dB      5:39 04-Nightwind (Remastered 2020)
DR11      -0.50 dB   -12.97 dB      3:15 05-One Good Turn (Remastered 2020)
DR9       -0.48 dB   -11.69 dB      3:02 06-Watch What Happens (Remastered 2020)
DR11      -0.48 dB   -12.69 dB      3:54 07-Yesterdays (Remastered 2020)
DR12      -0.50 dB   -15.75 dB      5:07 08-I Only Have Eyes for You (Remastered 2020)
DR10      -0.50 dB   -12.11 dB      3:39 09-Mucho Gusto (Remastered 2020)
DR12      -0.50 dB   -14.34 dB      4:24 10-Grill on the Hill (Remastered 2020)
--------------------------------------------------------------------------------

Number of tracks:  10
Official DR value: DR11

Samplerate:        96000 Hz
Channels:          2
Bits per sample:   24
Bitrate:           2950 kbps
Codec:             FLAC
================================================================================
Any questions - support@pro-jazz.com. Есть вопросы - support@pro-jazz.com
09:16
297
Нет комментариев. Ваш будет первым!