Вы используете незарегистрированную версию компонента "Вкладки"!

Поиск

1960 Peggy Lee - Pretty Eyes (2019) {RevOla} [24-44,1]

1960 Peggy Lee - Pretty Eyes (2019) {RevOla} [24-44,1]
Стили:
Издатель (лейбл):
Битрейт аудио:
lossless
Доп. инфо:

Формат записи/Источник записи: [TR24][OF]
Издание: Remastered
Год издания/переиздания диска: 1960/2019
Издатель (лейбл): RevOla
Продолжительность: 00:33:20
Наличие сканов в содержимом раздачи: Нет

Контейнер: FLAC (*.flac)
Тип рипа: tracks
Разрядность: 24/44,1
Количество каналов: 2.0

Источник (релизер): Qobuz

Лог проверки качества
foobar2000 1.4.3 / Dynamic Range Meter 1.1.1
log date: 2020-05-26 11:32:07

--------------------------------------------------------------------------------
Analyzed: Peggy Lee / Pretty Eyes (Remastered)
--------------------------------------------------------------------------------

DR         Peak         RMS     Duration Track
--------------------------------------------------------------------------------
DR11      -6.05 dB   -21.03 dB      2:54 01-As You Desire Me (Remastered)
DR10      -5.25 dB   -20.01 dB      2:28 02-It Could Happen To You (Remastered)
DR10      -6.93 dB   -19.63 dB      2:38 03-Pretty Eyes (Remastered)
DR13      -4.05 dB   -18.92 dB      1:57 04-Moments Like This (Remastered)
DR12      -5.94 dB   -21.07 dB      4:24 05-Remind Me (Remastered)
DR12      -2.93 dB   -17.63 dB      2:12 06-You Fascinate Me So (Remastered)
DR12      -4.69 dB   -19.17 dB      3:05 07-I Wanna Be Loved (Remastered)
DR12      -3.37 dB   -18.78 dB      2:42 08-I'm Walking Through Heaven With You (Remastered)
DR11      -4.93 dB   -18.11 dB      2:34 09-I Remember You (Remastered)
DR13      -1.73 dB   -18.54 dB      2:23 10-Too Close For Comfort (Remastered)
DR13      -4.12 dB   -19.59 dB      3:00 11-In Other Words (Remastered)
DR14      -2.42 dB   -18.85 dB      3:09 12-Because I Love Him So (Remastered)
--------------------------------------------------------------------------------

Number of tracks:  12
Official DR value: DR12

Samplerate:        44100 Hz
Channels:          2
Bits per sample:   24
Bitrate:           1473 kbps
Codec:             FLAC
================================================================================
Any questions - support@pro-jazz.com. Есть вопросы - support@pro-jazz.com
20:20
266
Нет комментариев. Ваш будет первым!