Вы используете незарегистрированную версию компонента "Вкладки"!

Поиск

1959 John Coltrane & Paul Quinichette - Cattin' with Coltrane and Quinichette {Concord} [24-96]

1959 John Coltrane & Paul Quinichette - Cattin' with Coltrane and Quinichette {Concord} [24-96]
Дата записи диска:
17 мая 1957
Место записи:
Rudy Van Gelder's Recording Studio, Englewood Cliffs, NJ, USA
Издатель (лейбл):
Битрейт аудио:
lossless
Доп. инфо:

Формат записи/Источник записи: [TR24][OF]
Издание: Remastered
Год издания/переиздания диска: 1957/2016
Продолжительность: 00:47:31
Наличие сканов в содержимом раздачи: Буклет PDF

Контейнер: FLAC (*.flac)
Тип рипа: tracks
Разрядность: 24/96
Количество каналов: 2.0

Источник (релизер): PROSTUDIOMASTERS

Лог проверки качества
foobar2000 1.4.3 / Dynamic Range Meter 1.1.1
log date: 2020-06-02 16:51:16

--------------------------------------------------------------------------------
Analyzed: John Coltrane & Paul Quinichette / Cattin' With Coltrane And Quinichette
--------------------------------------------------------------------------------

DR         Peak         RMS     Duration Track
--------------------------------------------------------------------------------
DR10      -0.20 dB   -12.24 dB      7:25 01-Cattin'
DR9       -0.20 dB   -11.14 dB      7:03 02-Sunday
DR10      -0.20 dB   -11.85 dB      6:51 03-Exactly Like You
DR11      -0.20 dB   -12.43 dB      8:54 04-Anatomy
DR11      -0.20 dB   -12.26 dB      9:10 05-Vodka
DR9       -0.20 dB   -11.35 dB      8:08 06-Tea For Two
--------------------------------------------------------------------------------

Number of tracks:  6
Official DR value: DR10

Samplerate:        96000 Hz
Channels:          2
Bits per sample:   24
Bitrate:           3344 kbps
Codec:             FLAC
================================================================================
Any questions - support@pro-jazz.com. Есть вопросы - support@pro-jazz.com
13:56
376
Нет комментариев. Ваш будет первым!