Вы используете незарегистрированную версию компонента "Вкладки"!

Поиск

2007 Claudio Roditi - Brazilliance X4 (2017) {2xHD} [24-44,1]

2007 Claudio Roditi - Brazilliance X4 (2017) {2xHD} [24-44,1]
Стили:
Издатель (лейбл):
Битрейт аудио:
lossless
Доп. инфо:

Формат записи/Источник записи: [TR24][OF]
Год издания/переиздания диска: 2007/2017
Продолжительность: 00:57:57
Наличие сканов в содержимом раздачи: Буклет PDF

Контейнер: FLAC (*.flac)
Тип рипа: tracks
Разрядность: 24/44,1
Количество каналов: 2.0

Источник (релизер): HDtracks

Лог проверки качества
foobar2000 1.4.3 / Dynamic Range Meter 1.1.1
log date: 2020-05-25 15:09:59

--------------------------------------------------------------------------------
Analyzed: Claudio Roditi / Brazilliance X4
--------------------------------------------------------------------------------

DR         Peak         RMS     Duration Track
--------------------------------------------------------------------------------
DR10      -3.35 dB   -15.19 dB      5:02 01-Pro Zeca
DR10      -2.58 dB   -15.20 dB      5:43 02-E nada mais
DR9       -2.83 dB   -14.40 dB      4:25 03-À vontade mesmo
DR9       -2.61 dB   -14.07 dB      4:35 04-Tune Up
DR9       -3.02 dB   -14.45 dB      5:22 05-Rapaz de bem
DR10      -2.38 dB   -14.84 dB      5:11 06-Dinner by Five
DR10      -2.73 dB   -15.43 dB      3:57 07-Song for Nana
DR10      -2.55 dB   -15.11 dB     10:53 08-Tema para Duduka
DR9       -2.75 dB   -13.89 dB      5:23 09-Quem diz que sabe
DR9       -2.60 dB   -13.64 dB      7:22 10-Gemini Man
--------------------------------------------------------------------------------

Number of tracks:  10
Official DR value: DR9

Samplerate:        44100 Hz
Channels:          2
Bits per sample:   24
Bitrate:           1550 kbps
Codec:             FLAC
================================================================================
Any questions - support@pro-jazz.com. Есть вопросы - support@pro-jazz.com
21:40
223
Нет комментариев. Ваш будет первым!