Поиск

1972 Eric Kloss - One, Two, Free (1998) {Muse, 32 Jazz MR 5019, 32094} [CD]

1972 Eric Kloss - One, Two, Free (1998) {Muse, 32 Jazz MR 5019, 32094} [CD]
Стили:
Дата записи диска:
28 августа 1972
Дата издания диска:
1972
Дата переиздания диска:
1998
Издатель (лейбл):
Номер по каталогу:
MR 5019 / 32094
Носитель:
CD
Аудиокодек:
FLAC (*.flac)
Тип рипа:
tracks+.cue
Битрейт аудио:
lossless
Время звучания:
00:41:51
Наличие сканов:
да
Релизёр (источник):
jazz-rock-fusion-guitar.blogspot.com
Треклист:

1. – One, Two, Free (Suite In Three Parts) (18:03)
1a – One, Two, Free
1b – Elegy
1c – The Wizard
2. It's Too Late (13:38)
3. Licea (10:10)

Лог создания рипа
Exact Audio Copy V1.0 beta 3 from 29. August 2011

EAC extraction logfile from 7. July 2016, 20:08

Eric Kloss / One, Two, Free

Used drive  : HL-DT-STDVDRAM GE24NU40   Adapter: 0  ID: 0

Read mode               : Secure
Utilize accurate stream : Yes
Defeat audio cache      : Yes
Make use of C2 pointers : No

Read offset correction                      : 6
Overread into Lead-In and Lead-Out          : No
Fill up missing offset samples with silence : Yes
Delete leading and trailing silent blocks   : No
Null samples used in CRC calculations       : Yes
Used interface                              : Native Win32 interface for Win NT & 2000
Gap handling                                : Not detected, thus appended to previous track

Used output format : Internal WAV Routines
Sample format      : 44.100 Hz; 16 Bit; Stereo

TOC of the extracted CD

     Track |   Start  |  Length  | Start sector | End sector
    ---------------------------------------------------------
        1  |  0:00.00 | 18:06.32 |         0    |    81481
        2  | 18:06.32 | 13:40.55 |     81482    |   143036
        3  | 31:47.12 | 10:11.70 |    143037    |   188931

Track  1

     Filename C:\Users\Stan.Stan-PC\Music\[Lossless]\Eric Kloss - 1972 [1998] One, Two, Free\01 One, Two, Free.wav

     Peak level 96.4 %
     Extraction speed 1.3 X
     Track quality 100.0 %
     Copy CRC 1B612229
     Accurately ripped (confidence 2)  [9FC8DACF]  (AR v2)
     Copy OK

Track  2

     Filename C:\Users\Stan.Stan-PC\Music\[Lossless]\Eric Kloss - 1972 [1998] One, Two, Free\02 It's Too Late.wav

     Peak level 100.0 %
     Extraction speed 1.7 X
     Track quality 100.0 %
     Copy CRC B3D647DA
     Accurately ripped (confidence 2)  [1ED665C6]  (AR v2)
     Copy OK

Track  3

     Filename C:\Users\Stan.Stan-PC\Music\[Lossless]\Eric Kloss - 1972 [1998] One, Two, Free\03 Licea.wav

     Peak level 96.6 %
     Extraction speed 2.0 X
     Track quality 100.0 %
     Copy CRC 8AB850CA
     Accurately ripped (confidence 2)  [D2C7C533]  (AR v2)
     Copy OK

All tracks accurately ripped

No errors occurred

End of status report
Содержание индексной карты (.CUE)
REM GENRE Jazz
REM DISCID 2609D703
REM COMMENT "ExactAudioCopy v1.0b3"
PERFORMER "Eric Kloss"
TITLE "One, Two, Free"
FILE "Range.wav" WAVE
  TRACK 01 AUDIO
    TITLE "One, Two, Free"
    PERFORMER "Eric Kloss"
    INDEX 01 00:00:00
  TRACK 02 AUDIO
    TITLE "It's Too Late"
    PERFORMER "Eric Kloss"
    INDEX 00 18:04:32
    INDEX 01 18:06:32
  TRACK 03 AUDIO
    TITLE "Licea"
    PERFORMER "Eric Kloss"
    INDEX 00 31:45:07
    INDEX 01 31:47:12
Приватный:
Нет (DHT включён)
Размер:
283.79 Мб (297,577,097 байт) » файлов: 16
Участники:
6 раздают, 0 качают (6 участников всего)
Внешние участники:
16 раздают, 5 качают (21 участников всего) [ Обновить ]
19:09
16
Нет комментариев. Ваш будет первым!