Поиск

2014 Stewart Welch, Gilad Chatsav & Shay Zelman - Jazz From The Middle To The East Vol. 2 - Songs From The White City [CD]

2014 Stewart Welch, Gilad Chatsav & Shay Zelman - Jazz From The Middle To The East Vol. 2 - Songs From The White City [CD]
Стили:
Страна-производитель диска (релиза):
Israel
Дата записи диска:
10 января 2014
Дата издания диска:
2014
Носитель:
CD
Аудиокодек:
FLAC (*.flac)
Тип рипа:
image+.cue
Битрейт аудио:
lossless
Время звучания:
45:20
Наличие сканов:
да
Релизёр (источник):
Musicgate
Треклист:

01. Four on Six (Wes Montgomery)
02. Misty (Erroll Garner)
03. Na'ama (Beaderman/Bar Oz [Avraham Bar Oz]; arr-Chatsav)*
04. Beatrice (Sam Rivers)
05. Lament for Kent (Welch/Chatsav)
06. Giant Steps (John Coltrane)
07. Music for a French Film (Chatsav)
08. Stew's Blues (Welch)
Bonus Tracks:
09. Music for a French Film (Duet)
10. Beatrice (alternate take)

 
Замер динамического диапазона
foobar2000 1.3.10 / Замер динамического диапазона (DR) 1.1.1
Дата отчёта:  2018-10-08 19:48:03
--------------------------------------------------------------------------------
Анализ:   Welch, Chatsav, Zelman / Jazz From The Middle To The East - Vol. II
--------------------------------------------------------------------------------
DR         Пики         RMS           Продолжительность трека
--------------------------------------------------------------------------------
DR11      -0.01 дБ   -12.51 дБ      4:38 01-Four On Six
DR8       -0.10 дБ    -9.68 дБ      6:19 02-Misty
DR10      -0.10 дБ   -11.97 дБ      6:34 03-Na'ama
DR11      -0.01 дБ   -12.85 дБ      4:01 04-Beatrice
DR10       0.00 дБ   -13.29 дБ      4:46 05-Lament For Kent
DR9        0.00 дБ   -11.47 дБ      3:00 06-Giant Steps
DR11      -0.10 дБ   -13.56 дБ      3:06 07-Music For A French Film
DR10      -0.10 дБ   -12.39 дБ      4:45 08-Stew's Blues
DR11      -0.65 дБ   -14.82 дБ      3:07 09-Music For A French Film (Duet)
DR10      -0.33 дБ   -13.35 дБ      5:04 10-Beatrice (Alternative Take)
--------------------------------------------------------------------------------
Количество треков: 10
Реальные значения DR: DR10
Частота:   44100 Гц
Каналов:   2
Разрядность:   16
Битрейт:   870 кбит/с
Кодек:   FLAC
================================================================================
Лог создания рипа
Exact Audio Copy V1.3 from 2. September 2016

EAC extraction logfile from 8. September 2018, 15:31

Welch, Chatsav, Zelman / Jazz From The Middle To The East - Vol. II

Used drive  : HL-DT-STDVDRAM GH24NSB0   Adapter: 1  ID: 0

Read mode               : Secure
Utilize accurate stream : Yes
Defeat audio cache      : Yes
Make use of C2 pointers : No

Read offset correction                      : 6
Overread into Lead-In and Lead-Out          : No
Fill up missing offset samples with silence : Yes
Delete leading and trailing silent blocks   : No
Null samples used in CRC calculations       : Yes
Used interface                              : Native Win32 interface for Win NT & 2000
Gap handling                                : Appended to previous track

Used output format              : User Defined Encoder
Selected bitrate                : 1024 kBit/s
Quality                         : High
Add ID3 tag                     : No
Command line compressor         : C:\Program Files (x86)\Exact Audio Copy\FLAC\FLAC.EXE
Additional command line options : -V -8 -T "Genre=%genre%" -T "Artist=%artist%" -T "Title=%title%" -T "Album=%albumtitle%" -T "Date=%year%" -T "Tracknumber=%tracknr%" -T "Comment=%comment%" %source%

TOC of the extracted CD

     Track |   Start  |  Length  | Start sector | End sector
    ---------------------------------------------------------
        1  |  0:00.00 |  4:37.70 |         0    |    20844
        2  |  4:37.70 |  6:19.19 |     20845    |    49288
        3  | 10:57.14 |  6:34.19 |     49289    |    78857
        4  | 17:31.33 |  4:00.68 |     78858    |    96925
        5  | 21:32.26 |  4:45.66 |     96926    |   118366
        6  | 26:18.17 |  3:00.22 |    118367    |   131888
        7  | 29:18.39 |  3:06.20 |    131889    |   145858
        8  | 32:24.59 |  4:45.25 |    145859    |   167258
        9  | 37:10.09 |  3:06.46 |    167259    |   181254
       10  | 40:16.55 |  5:03.69 |    181255    |   204048

Track  1

     Filename D:\Music\MG rips\Welch, Chatsav, Zelman - Jazz From The Middle To The East - Vol. II - 2014 (Self Released) [FLAC]\01 - Four On Six.wav

     Pre-gap length  0:00:02.00

     Peak level 99.9 %
     Extraction speed 1.0 X
     Track quality 100.0 %
     Test CRC 608F098F
     Copy CRC 608F098F
     Track not present in AccurateRip database
     Copy OK

Track  2

     Filename D:\Music\MG rips\Welch, Chatsav, Zelman - Jazz From The Middle To The East - Vol. II - 2014 (Self Released) [FLAC]\02 - Misty.wav

     Peak level 98.8 %
     Extraction speed 1.2 X
     Track quality 100.0 %
     Test CRC 8730D740
     Copy CRC 8730D740
     Track not present in AccurateRip database
     Copy OK

Track  3

     Filename D:\Music\MG rips\Welch, Chatsav, Zelman - Jazz From The Middle To The East - Vol. II - 2014 (Self Released) [FLAC]\03 - Na'ama.wav

     Peak level 98.8 %
     Extraction speed 1.4 X
     Track quality 100.0 %
     Test CRC C4ED6F14
     Copy CRC C4ED6F14
     Track not present in AccurateRip database
     Copy OK

Track  4

     Filename D:\Music\MG rips\Welch, Chatsav, Zelman - Jazz From The Middle To The East - Vol. II - 2014 (Self Released) [FLAC]\04 - Beatrice.wav

     Peak level 99.9 %
     Extraction speed 1.5 X
     Track quality 100.0 %
     Test CRC 992C3A3C
     Copy CRC 992C3A3C
     Track not present in AccurateRip database
     Copy OK

Track  5

     Filename D:\Music\MG rips\Welch, Chatsav, Zelman - Jazz From The Middle To The East - Vol. II - 2014 (Self Released) [FLAC]\05 - Lament For Kent.wav

     Peak level 100.0 %
     Extraction speed 1.4 X
     Track quality 99.9 %
     Test CRC 11014078
     Copy CRC 11014078
     Track not present in AccurateRip database
     Copy OK

Track  6

     Filename D:\Music\MG rips\Welch, Chatsav, Zelman - Jazz From The Middle To The East - Vol. II - 2014 (Self Released) [FLAC]\06 - Giant Steps.wav

     Peak level 100.0 %
     Extraction speed 1.5 X
     Track quality 100.0 %
     Test CRC 88F3A922
     Copy CRC 88F3A922
     Track not present in AccurateRip database
     Copy OK

Track  7

     Filename D:\Music\MG rips\Welch, Chatsav, Zelman - Jazz From The Middle To The East - Vol. II - 2014 (Self Released) [FLAC]\07 - Music For A French Film.wav

     Peak level 98.8 %
     Extraction speed 1.4 X
     Track quality 99.9 %
     Test CRC 3C613B3C
     Copy CRC 3C613B3C
     Track not present in AccurateRip database
     Copy OK

Track  8

     Filename D:\Music\MG rips\Welch, Chatsav, Zelman - Jazz From The Middle To The East - Vol. II - 2014 (Self Released) [FLAC]\08 - Stew's Blues.wav

     Peak level 98.8 %
     Extraction speed 1.8 X
     Track quality 100.0 %
     Test CRC 241C75EA
     Copy CRC 241C75EA
     Track not present in AccurateRip database
     Copy OK

Track  9

     Filename D:\Music\MG rips\Welch, Chatsav, Zelman - Jazz From The Middle To The East - Vol. II - 2014 (Self Released) [FLAC]\09 - Music For A French Film (Duet).wav

     Peak level 92.8 %
     Extraction speed 1.8 X
     Track quality 100.0 %
     Test CRC 3F7E5458
     Copy CRC 3F7E5458
     Track not present in AccurateRip database
     Copy OK

Track 10

     Filename D:\Music\MG rips\Welch, Chatsav, Zelman - Jazz From The Middle To The East - Vol. II - 2014 (Self Released) [FLAC]\10 - Beatrice (Alternative Take).wav

     Peak level 96.3 %
     Extraction speed 2.0 X
     Track quality 100.0 %
     Test CRC AFD5F697
     Copy CRC AFD5F697
     Track not present in AccurateRip database
     Copy OK

None of the tracks are present in the AccurateRip database

No errors occurred

End of status report

==== Log checksum 84D887B90B468E1A706A14747487DC1417DF7F2AA407A53EF137317942A43079 ====
Содержание индексной карты (.CUE)
REM GENRE Jazz
REM DATE 2014
REM DISCID 890AA00A
REM COMMENT "ExactAudioCopy v1.3"
PERFORMER "Welch, Chatsav, Zelman"
TITLE "Jazz From The Middle To The East - Vol. II"
REM COMPOSER ""
FILE "01 - Four On Six.wav" WAVE
  TRACK 01 AUDIO
    TITLE "Four On Six"
    PERFORMER "Welch, Chatsav, Zelman"
    REM COMPOSER ""
    INDEX 01 00:00:00
FILE "02 - Misty.wav" WAVE
  TRACK 02 AUDIO
    TITLE "Misty"
    PERFORMER "Welch, Chatsav, Zelman"
    REM COMPOSER ""
    INDEX 01 00:00:00
FILE "03 - Na'ama.wav" WAVE
  TRACK 03 AUDIO
    TITLE "Na'ama"
    PERFORMER "Welch, Chatsav, Zelman"
    REM COMPOSER ""
    INDEX 01 00:00:00
FILE "04 - Beatrice.wav" WAVE
  TRACK 04 AUDIO
    TITLE "Beatrice"
    PERFORMER "Welch, Chatsav, Zelman"
    REM COMPOSER ""
    INDEX 01 00:00:00
FILE "05 - Lament For Kent.wav" WAVE
  TRACK 05 AUDIO
    TITLE "Lament For Kent"
    PERFORMER "Welch, Chatsav, Zelman"
    REM COMPOSER ""
    INDEX 01 00:00:00
FILE "06 - Giant Steps.wav" WAVE
  TRACK 06 AUDIO
    TITLE "Giant Steps"
    PERFORMER "Welch, Chatsav, Zelman"
    REM COMPOSER ""
    INDEX 01 00:00:00
FILE "07 - Music For A French Film.wav" WAVE
  TRACK 07 AUDIO
    TITLE "Music For A French Film"
    PERFORMER "Welch, Chatsav, Zelman"
    REM COMPOSER ""
    INDEX 01 00:00:00
FILE "08 - Stew's Blues.wav" WAVE
  TRACK 08 AUDIO
    TITLE "Stew's Blues"
    PERFORMER "Welch, Chatsav, Zelman"
    REM COMPOSER ""
    INDEX 01 00:00:00
FILE "09 - Music For A French Film (Duet).wav" WAVE
  TRACK 09 AUDIO
    TITLE "Music For A French Film (Duet)"
    PERFORMER "Welch, Chatsav, Zelman"
    REM COMPOSER ""
    INDEX 01 00:00:00
FILE "10 - Beatrice (Alternative Take).wav" WAVE
  TRACK 10 AUDIO
    TITLE "Beatrice (Alternative Take)"
    PERFORMER "Welch, Chatsav, Zelman"
    REM COMPOSER ""
    INDEX 01 00:00:00
Лог проверки качества
[CUETools log; Date: 10/1/2018 3:33:26 PM; Version: 2.1.5]
[CTDB TOCID: 0H9w1hpa5FYN6fhaf5FxBPSaQwI-] found.
Track | CTDB Status
  1   | (1/1) Accurately ripped
  2   | (1/1) Accurately ripped
  3   | (1/1) Accurately ripped
  4   | (1/1) Accurately ripped
  5   | (1/1) Accurately ripped
  6   | (1/1) Accurately ripped
  7   | (1/1) Accurately ripped
  8   | (1/1) Accurately ripped
  9   | (1/1) Accurately ripped
 10   | (1/1) Accurately ripped
[AccurateRip ID: 00123a64-008eb491-890aa00a] disk not present in database.

Track Peak [ CRC32  ] [W/O NULL] [  LOG   ]
 --   99.9 [5436EEFA] [FD5F1E7B]
 01   99.9 [608F098F] [C3678B2E]   CRC32
 02   98.8 [8730D740] [3C425065]   CRC32
 03   98.8 [C4ED6F14] [96BEC470]   CRC32
 04   99.9 [992C3A3C] [5BB84846]   CRC32
 05   99.9 [11014078] [1B289131]   CRC32
 06   99.9 [88F3A922] [0EACEAD4]   CRC32
 07   98.8 [3C613B3C] [3B25D1AC]   CRC32
 08   98.8 [241C75EA] [C6664398]   CRC32
 09   92.8 [3F7E5458] [CBEB0936]   CRC32
 10   96.3 [AFD5F697] [212D6A6B]   CRC32
Скриншот спектра частот
2014 Stewart Welch, Gilad Chatsav & Shay Zelman - Jazz From The Middle To The East Vol. 2 - Songs From The White City [CD] 02014 Stewart Welch, Gilad Chatsav & Shay Zelman - Jazz From The Middle To The East Vol. 2 - Songs From The White City [CD] 12014 Stewart Welch, Gilad Chatsav & Shay Zelman - Jazz From The Middle To The East Vol. 2 - Songs From The White City [CD] 2
Приватный:
Нет (DHT включён)
Размер:
298.83 Мб (313,342,406 байт) » файлов: 19
Участники:
6 раздают, 0 качают (6 участников всего)
Внешние участники:
7 раздают, 2 качают (9 участников всего) [ Обновить ]
18:33
22
Нет комментариев. Ваш будет первым!