Поиск

2018 Carli Munoz - Follow Me {Tabono} [WEB]

2018 Carli Munoz - Follow Me {Tabono} [WEB]
Стили:
Страна-производитель диска (релиза):
USA
Дата издания диска:
25 сентября 2018
Издатель (лейбл):
Носитель:
WEB
Аудиокодек:
FLAC (*.flac)
Тип рипа:
tracks
Битрейт аудио:
lossless
Время звучания:
00:49:24
Наличие сканов:
только обложка
Релизёр (источник):
jazznbluesclub (Mike1985)
Треклист:

01. Strangers in a Strange Land
02. Wangari Maathai
03. The Hummingbird
04. Tujunga Waltz
05. Follow Me
06. Tere
07. Claude's Hope (Bonus Track)
08. Kenguen (Bonus Track)

 
Замер динамического диапазона
foobar2000 1.4 / Dynamic Range Meter 1.1.1
log date: 2018-10-29 07:02:43
--------------------------------------------------------------------------------
Analyzed: Carli Munoz / Follow Me
--------------------------------------------------------------------------------
DR         Peak         RMS     Duration Track
--------------------------------------------------------------------------------
DR9       -0.03 dB   -10.40 dB      3:55 01-Strangers in a Strange Land
DR8        0.00 dB   -10.37 dB      7:41 02-Wangari Maathai
DR9       -0.03 dB   -10.94 dB      6:01 03-The Hummingbird
DR8       -0.03 dB   -10.80 dB      6:25 04-Tujunga Waltz
DR9       -0.03 dB   -10.75 dB      6:11 05-Follow Me
DR8       -0.03 dB    -9.86 dB      6:03 06-Tere
DR8        0.00 dB    -9.46 dB      5:40 07-Claude's Hope (Bonus Track)
DR8        0.00 dB   -10.18 dB      7:27 08-Kenguen (Bonus Track)
--------------------------------------------------------------------------------
Number of tracks:  8
Official DR value: DR8
Samplerate:        44100 Hz
Channels:          2
Bits per sample:   16
Bitrate:           983 kbps
Codec:             FLAC
================================================================================
Лог проверки качества
AUDIOCHECKER v2.0 beta (build 457) - by Dester - opdester@freemail.hu
~~~~~~~~~~~~~~~~~~~~~~~~~~~~~~~~~~

Started at: понедельник, 29. 10. 2018. - 7:03.12
8 files found

1 -===- F:\MUSIC\JAZZ\2018 Carli Munoz - Follow Me FLAC\01. Strangers in a Strange Land.flac
Extracted successfully
Conclusion: this track is CDDA with probability 100%
Tempfile successfully deleted.

2 -===- F:\MUSIC\JAZZ\2018 Carli Munoz - Follow Me FLAC\02. Wangari Maathai.flac
Extracted successfully
Conclusion: this track is CDDA with probability 100%
Tempfile successfully deleted.

3 -===- F:\MUSIC\JAZZ\2018 Carli Munoz - Follow Me FLAC\03. The Hummingbird.flac
Extracted successfully
Conclusion: this track is CDDA with probability 100%
Tempfile successfully deleted.

4 -===- F:\MUSIC\JAZZ\2018 Carli Munoz - Follow Me FLAC\04. Tujunga Waltz.flac
Extracted successfully
Conclusion: this track is CDDA with probability 99%
Tempfile successfully deleted.

5 -===- F:\MUSIC\JAZZ\2018 Carli Munoz - Follow Me FLAC\05. Follow Me.flac
Extracted successfully
Conclusion: this track is CDDA with probability 100%
Tempfile successfully deleted.

6 -===- F:\MUSIC\JAZZ\2018 Carli Munoz - Follow Me FLAC\06. Tere.flac
Extracted successfully
Conclusion: this track is CDDA with probability 100%
Tempfile successfully deleted.

7 -===- F:\MUSIC\JAZZ\2018 Carli Munoz - Follow Me FLAC\07. Claude's Hope (Bonus Track).flac
Extracted successfully
Conclusion: this track is CDDA with probability 100%
Tempfile successfully deleted.

8 -===- F:\MUSIC\JAZZ\2018 Carli Munoz - Follow Me FLAC\08. Kenguen (Bonus Track).flac
Extracted successfully
Conclusion: this track is CDDA with probability 100%
Tempfile successfully deleted.

Finished at: понедельник, 29. 10. 2018. - 7:05.33 (operation time: 0:02.21)
Скриншот спектра частот
2018 Carli Munoz - Follow Me {Tabono} [WEB] 0
Скачивание доступно после регистрации!!
Приватный:
Нет (DHT включён)
Размер:
336.99 Мб (353,358,202 байт) » файлов: 9
Участники:
6 раздают, 0 качают (6 участников всего)
Внешние участники:
7 раздают, 2 качают (9 участников всего) [ Обновить ]
20:46
35
Нет комментариев. Ваш будет первым!