Поиск

1963 Eric Dolphy - Musical Prophet: The Expanded New York Studio Sessions (2019) {Resonance HCD-2035} [CD]

1963 Eric Dolphy - Musical Prophet: The Expanded New York Studio Sessions (2019) {Resonance HCD-2035} [CD]
Битрейт аудио:
lossless
Треклист:

Disc 1 (49:43)
1. Jitterbug Waltz
2. Music Matador
3. Love Me
4. Alone Together
5. Muses for Richard Davis
6. Muses for Richard Davis (Alternate Take)
Disc 2 (55:30)
1. Iron Man
2. Mandrake
3. Come Sunday
4. Ode to Charlie Parker
5. Burning Spear
6. A Personal Statement
Disc 3 (52:45)
1. Music Matador (Alternate Take)
2. Love Me (Alternate Take 1)
3. Love Me (Alternate Take 2)
4. Alone Together (Alternate Take)
5. Jitterbug Waltz (Alternate Take)
6. Mandrake (Alternate Take)
7. Burning Spear (Alternate Take)

Лог создания рипа
CD1
Exact Audio Copy V1.3 from 2. September 2016

EAC extraction logfile from 26. January 2019, 14:26

Eric Dolphy / Musical Prophet (CD1 - Conversations)

Used drive  : PLEXTOR CD-R   PREMIUM   Adapter: 1  ID: 1

Read mode               : Secure
Utilize accurate stream : Yes
Defeat audio cache      : Yes
Make use of C2 pointers : No

Read offset correction                      : 30
Overread into Lead-In and Lead-Out          : Yes
Fill up missing offset samples with silence : Yes
Delete leading and trailing silent blocks   : No
Null samples used in CRC calculations       : Yes
Used interface                              : Native Win32 interface for Win NT & 2000
Gap handling                                : Appended to previous track

Used output format              : User Defined Encoder
Selected bitrate                : 1024 kBit/s
Quality                         : High
Add ID3 tag                     : No
Command line compressor         : C:\Program Files (x86)\Exact Audio Copy\Flac\flac.exe
Additional command line options : -8 -V -T "ARTIST=%artist%" -T "TITLE=%title%" -T "ALBUM=%albumtitle%" -T "DATE=%year%" -T "TRACKNUMBER=%tracknr%" -T "GENRE=%genre%" -T "PERFORMER=%albuminterpret%" -T "COMPOSER=%composer%" %haslyrics%--tag-from-file=LYRICS="%lyricsfile%"%haslyrics% -T "ALBUMARTIST=%albumartist%" -T "DISCNUMBER=%cdnumber%" -T "TOTALDISCS=%totalcds%" -T "TOTALTRACKS=%numtracks%" -T "COMMENT=%comment%" %source% -o %dest%

TOC of the extracted CD

     Track |   Start  |  Length  | Start sector | End sector
    ---------------------------------------------------------
        1  |  0:00.00 |  7:18.41 |         0    |    32890
        2  |  7:18.41 |  9:40.08 |     32891    |    76398
        3  | 16:58.49 |  3:21.49 |     76399    |    91522
        4  | 20:20.23 | 13:38.48 |     91523    |   152920
        5  | 33:58.71 |  7:36.41 |    152921    |   187161
        6  | 41:35.37 |  8:21.01 |    187162    |   224737

Track  1

     Filename D:\CD Rips\Eric Dolphy - Musical Prophet CD1\01 - Jitterbug Waltz.wav

     Pre-gap length  0:00:02.00

     Peak level 87.9 %
     Extraction speed 4.1 X
     Track quality 99.9 %
     Test CRC 08EF7B44
     Copy CRC 08EF7B44
     Track not present in AccurateRip database
     Copy OK

Track  2

     Filename D:\CD Rips\Eric Dolphy - Musical Prophet CD1\02 - Music Matador.wav

     Pre-gap length  0:00:01.76

     Peak level 86.0 %
     Extraction speed 4.5 X
     Track quality 100.0 %
     Test CRC 0AD22ED4
     Copy CRC 0AD22ED4
     Track not present in AccurateRip database
     Copy OK

Track  3

     Filename D:\CD Rips\Eric Dolphy - Musical Prophet CD1\03 - Love Me.wav

     Pre-gap length  0:00:01.76

     Peak level 86.8 %
     Extraction speed 4.0 X
     Track quality 100.0 %
     Test CRC E434FB7B
     Copy CRC E434FB7B
     Track not present in AccurateRip database
     Copy OK

Track  4

     Filename D:\CD Rips\Eric Dolphy - Musical Prophet CD1\04 - Alone Together.wav

     Pre-gap length  0:00:01.76

     Peak level 88.3 %
     Extraction speed 1.6 X
     Track quality 100.0 %
     Test CRC 29E22026
     Copy CRC 29E22026
     Track not present in AccurateRip database
     Copy OK

Track  5

     Filename D:\CD Rips\Eric Dolphy - Musical Prophet CD1\05 - Muses for Richard Davis (Previously Unissued 1).wav

     Pre-gap length  0:00:01.76

     Peak level 88.1 %
     Extraction speed 0.9 X
     Track quality 100.0 %
     Test CRC EC37C14F
     Copy CRC EC37C14F
     Track not present in AccurateRip database
     Copy OK

Track  6

     Filename D:\CD Rips\Eric Dolphy - Musical Prophet CD1\06 - Muses for Richard Davis (Previously Unissued 2).wav

     Pre-gap length  0:00:01.76

     Peak level 88.2 %
     Extraction speed 0.9 X
     Track quality 100.0 %
     Test CRC 1DA20786
     Copy CRC 1DA20786
     Track not present in AccurateRip database
     Copy OK

None of the tracks are present in the AccurateRip database

No errors occurred

End of status report

---- CUETools DB Plugin V2.1.6

[CTDB TOCID: VtWs6pdAv8tdi68qxWAEETSKwnA-] found
Submit result: VtWs6pdAv8tdi68qxWAEETSKwnA- has been confirmed
Track | CTDB Status
  1   | (6/6) Accurately ripped
  2   | (6/6) Accurately ripped
  3   | (6/6) Accurately ripped
  4   | (6/6) Accurately ripped
  5   | (6/6) Accurately ripped
  6   | (6/6) Accurately ripped

==== Log checksum 3680E0F4D87B8F1F8B18096C86D0D3875492DAC93D339B62EFA76966053E9776 ====

CD2
Exact Audio Copy V1.3 from 2. September 2016

EAC extraction logfile from 26. January 2019, 16:07

Eric Dolphy / Musical Prophet (CD2 - Iron Man)

Used drive  : HL-DT-STBD-RE  WH14NS40   Adapter: 1  ID: 0

Read mode               : Secure
Utilize accurate stream : Yes
Defeat audio cache      : Yes
Make use of C2 pointers : No

Read offset correction                      : 6
Overread into Lead-In and Lead-Out          : No
Fill up missing offset samples with silence : Yes
Delete leading and trailing silent blocks   : No
Null samples used in CRC calculations       : Yes
Used interface                              : Native Win32 interface for Win NT & 2000
Gap handling                                : Appended to previous track

Used output format              : User Defined Encoder
Selected bitrate                : 1024 kBit/s
Quality                         : High
Add ID3 tag                     : No
Command line compressor         : C:\Program Files (x86)\Exact Audio Copy\Flac\flac.exe
Additional command line options : -8 -e -p -V -T "ARTIST=%artist%" -T "TITLE=%title%" -T "ALBUM=%albumtitle%" -T "DATE=%year%" -T "TRACKNUMBER=%tracknr%" -T "GENRE=%genre%" -T "PERFORMER=%albuminterpret%" -T "COMPOSER=%composer%" %haslyrics%--tag-from-file=LYRICS="%lyricsfile%"%haslyrics% -T "ALBUMARTIST=%albumartist%" -T "DISCNUMBER=%cdnumber%" -T "TOTALDISCS=%totalcds%" -T "TOTALTRACKS=%numtracks%" -T "COMMENT=%comment%" %source% -o %dest%

TOC of the extracted CD

     Track |   Start  |  Length  | Start sector | End sector
    ---------------------------------------------------------
        1  |  0:00.00 |  9:13.12 |         0    |    41486
        2  |  9:13.12 |  4:48.31 |     41487    |    63117
        3  | 14:01.43 |  6:30.32 |     63118    |    92399
        4  | 20:32.00 | 12:01.46 |     92400    |   146520
        5  | 32:33.46 |  8:06.67 |    146521    |   183037
        6  | 40:40.38 | 14:59.68 |    183038    |   250530

Track  1

     Filename M:\MUSIC2\CD AUDIO RIPS\Eric Dolphy - Musical Prophet CD2\01 - Iron Man.wav

     Pre-gap length  0:00:02.00

     Peak level 88.7 %
     Extraction speed 1.2 X
     Track quality 100.0 %
     Test CRC FB371930
     Copy CRC FB371930
     Track not present in AccurateRip database
     Copy OK

Track  2

     Filename M:\MUSIC2\CD AUDIO RIPS\Eric Dolphy - Musical Prophet CD2\02 - Mandrake.wav

     Pre-gap length  0:00:01.76

     Peak level 87.9 %
     Extraction speed 1.1 X
     Track quality 99.9 %
     Test CRC FF6DDB1C
     Copy CRC FF6DDB1C
     Track not present in AccurateRip database
     Copy OK

Track  3

     Filename M:\MUSIC2\CD AUDIO RIPS\Eric Dolphy - Musical Prophet CD2\03 - Come Sunday.wav

     Pre-gap length  0:00:01.76

     Peak level 88.1 %
     Extraction speed 1.4 X
     Track quality 99.9 %
     Test CRC E7F43365
     Copy CRC E7F43365
     Track not present in AccurateRip database
     Copy OK

Track  4

     Filename M:\MUSIC2\CD AUDIO RIPS\Eric Dolphy - Musical Prophet CD2\04 - Burning Spear.wav

     Pre-gap length  0:00:01.76

     Peak level 88.6 %
     Extraction speed 1.8 X
     Track quality 100.0 %
     Test CRC AD8D9C09
     Copy CRC AD8D9C09
     Track not present in AccurateRip database
     Copy OK

Track  5

     Filename M:\MUSIC2\CD AUDIO RIPS\Eric Dolphy - Musical Prophet CD2\05 - Ode to Charlie Parker.wav

     Pre-gap length  0:00:01.76

     Peak level 88.3 %
     Extraction speed 2.0 X
     Track quality 100.0 %
     Test CRC 94BC69D7
     Copy CRC 94BC69D7
     Track not present in AccurateRip database
     Copy OK

Track  6

     Filename M:\MUSIC2\CD AUDIO RIPS\Eric Dolphy - Musical Prophet CD2\06 - A Personal Statement.wav

     Pre-gap length  0:00:01.76

     Peak level 88.7 %
     Extraction speed 2.3 X
     Track quality 100.0 %
     Test CRC F94F8226
     Copy CRC F94F8226
     Track not present in AccurateRip database
     Copy OK

None of the tracks are present in the AccurateRip database

No errors occurred

End of status report

---- CUETools DB Plugin V2.1.6

[CTDB TOCID: 7ADQXIqkey0Wi6lERXojjO9pWBw-] found
Submit result: 7ADQXIqkey0Wi6lERXojjO9pWBw- has been submitted
Track | CTDB Status
  1   | (1/7) Accurately ripped, or (6/7) differs in 61 samples @02:06:00
  2   | (7/7) Accurately ripped
  3   | (6/7) Accurately ripped
  4   | (7/7) Accurately ripped
  5   | (7/7) Accurately ripped
  6   | (7/7) Accurately ripped
If you are sure that your rip contains errors, you can use CUETools to repair it.

==== Log checksum 8B8E3B0C81AC1F51C383FED12B60E10CEEAFC59EF02CF919073DC6541796E9F6 ====

CD3
Exact Audio Copy V1.3 from 2. September 2016

EAC extraction logfile from 26. January 2019, 14:33

Eric Dolphy / Musical Prophet (CD3 - Previously Unissued Official Studio Recordings)

Used drive  : HL-DT-STBD-RE  WH14NS40   Adapter: 1  ID: 0

Read mode               : Secure
Utilize accurate stream : Yes
Defeat audio cache      : Yes
Make use of C2 pointers : No

Read offset correction                      : 6
Overread into Lead-In and Lead-Out          : No
Fill up missing offset samples with silence : Yes
Delete leading and trailing silent blocks   : No
Null samples used in CRC calculations       : Yes
Used interface                              : Native Win32 interface for Win NT & 2000
Gap handling                                : Appended to previous track

Used output format              : User Defined Encoder
Selected bitrate                : 1024 kBit/s
Quality                         : High
Add ID3 tag                     : No
Command line compressor         : C:\Program Files (x86)\Exact Audio Copy\Flac\flac.exe
Additional command line options : -8 -e -p -V -T "ARTIST=%artist%" -T "TITLE=%title%" -T "ALBUM=%albumtitle%" -T "DATE=%year%" -T "TRACKNUMBER=%tracknr%" -T "GENRE=%genre%" -T "PERFORMER=%albuminterpret%" -T "COMPOSER=%composer%" %haslyrics%--tag-from-file=LYRICS="%lyricsfile%"%haslyrics% -T "ALBUMARTIST=%albumartist%" -T "DISCNUMBER=%cdnumber%" -T "TOTALDISCS=%totalcds%" -T "TOTALTRACKS=%numtracks%" -T "COMMENT=%comment%" %source% -o %dest%

TOC of the extracted CD

     Track |   Start  |  Length  | Start sector | End sector
    ---------------------------------------------------------
        1  |  0:00.00 |  7:58.55 |         0    |    35904
        2  |  7:58.55 |  2:23.37 |     35905    |    46666
        3  | 10:22.17 |  3:41.73 |     46667    |    63314
        4  | 14:04.15 | 12:17.12 |     63315    |   118601
        5  | 26:21.27 |  9:24.74 |    118602    |   160975
        6  | 35:46.26 |  6:42.56 |    160976    |   191181
        7  | 42:29.07 | 10:33.10 |    191182    |   238666

Track  1

     Filename M:\MUSIC2\CD AUDIO RIPS\Eric Dolphy - Musical Prophet CD3\01 - Music Matador (Alternate Take).wav

     Pre-gap length  0:00:02.00

     Peak level 98.9 %
     Extraction speed 1.3 X
     Track quality 99.9 %
     Test CRC 62ECD083
     Copy CRC 62ECD083
     Track not present in AccurateRip database
     Copy OK

Track  2

     Filename M:\MUSIC2\CD AUDIO RIPS\Eric Dolphy - Musical Prophet CD3\02 - Love Me (Alternate Take 1).wav

     Pre-gap length  0:00:01.76

     Peak level 87.9 %
     Extraction speed 1.2 X
     Track quality 100.0 %
     Test CRC 238E0E78
     Copy CRC 238E0E78
     Track not present in AccurateRip database
     Copy OK

Track  3

     Filename M:\MUSIC2\CD AUDIO RIPS\Eric Dolphy - Musical Prophet CD3\03 - Love Me (Alternate Take 2).wav

     Pre-gap length  0:00:01.76

     Peak level 88.7 %
     Extraction speed 1.3 X
     Track quality 100.0 %
     Test CRC 890DDB77
     Copy CRC 890DDB77
     Track not present in AccurateRip database
     Copy OK

Track  4

     Filename M:\MUSIC2\CD AUDIO RIPS\Eric Dolphy - Musical Prophet CD3\04 - Alone Together (Alternate Take).wav

     Pre-gap length  0:00:01.76

     Peak level 88.3 %
     Extraction speed 1.7 X
     Track quality 100.0 %
     Test CRC 90EEFAD6
     Copy CRC 90EEFAD6
     Track not present in AccurateRip database
     Copy OK

Track  5

     Filename M:\MUSIC2\CD AUDIO RIPS\Eric Dolphy - Musical Prophet CD3\05 - Jitterbug Waltz (Alternate Take).wav

     Pre-gap length  0:00:01.76

     Peak level 87.9 %
     Extraction speed 1.9 X
     Track quality 100.0 %
     Test CRC D77ED8BC
     Copy CRC D77ED8BC
     Track not present in AccurateRip database
     Copy OK

Track  6

     Filename M:\MUSIC2\CD AUDIO RIPS\Eric Dolphy - Musical Prophet CD3\06 - Mandrake (Alternate Take).wav

     Pre-gap length  0:00:01.76

     Peak level 88.9 %
     Extraction speed 2.0 X
     Track quality 100.0 %
     Test CRC 33368956
     Copy CRC 33368956
     Track not present in AccurateRip database
     Copy OK

Track  7

     Filename M:\MUSIC2\CD AUDIO RIPS\Eric Dolphy - Musical Prophet CD3\07 - Burning Spear (Alternate Take).wav

     Pre-gap length  0:00:01.76

     Peak level 92.5 %
     Extraction speed 2.1 X
     Track quality 99.9 %
     Test CRC 8D26BB36
     Copy CRC 8D26BB36
     Track not present in AccurateRip database
     Copy OK

None of the tracks are present in the AccurateRip database

No errors occurred

End of status report

---- CUETools DB Plugin V2.1.6

[CTDB TOCID: WLYTmz.PQGq9Ma4q5aTagGpOjb4-] found
Submit result: WLYTmz.PQGq9Ma4q5aTagGpOjb4- has been confirmed
Track | CTDB Status
  1   | (5/5) Accurately ripped
  2   | (5/5) Accurately ripped
  3   | (5/5) Accurately ripped
  4   | (5/5) Accurately ripped
  5   | (5/5) Accurately ripped
  6   | (5/5) Accurately ripped
  7   | (5/5) Accurately ripped

==== Log checksum 084487A971C81F7B03B6BEE0B274986F7EBDBDC17342DB529FD0B2D9911A8FAE ====
Содержание индексной карты (.CUE)
CD1
REM GENRE Jazz
REM DATE 2018
REM DISCID 300BB406
REM COMMENT "ExactAudioCopy v1.3"
PERFORMER "Eric Dolphy"
TITLE "Musical Prophet (CD1 - Conversations)"
REM COMPOSER ""
FILE "01 - Jitterbug Waltz.wav" WAVE
  TRACK 01 AUDIO
    TITLE "Jitterbug Waltz"
    PERFORMER "Eric Dolphy"
    REM COMPOSER ""
    INDEX 01 00:00:00
  TRACK 02 AUDIO
    TITLE "Music Matador"
    PERFORMER "Eric Dolphy"
    REM COMPOSER ""
    INDEX 00 07:16:59
FILE "02 - Music Matador.wav" WAVE
    INDEX 01 00:00:00
  TRACK 03 AUDIO
    TITLE "Love Me"
    PERFORMER "Eric Dolphy"
    REM COMPOSER ""
    INDEX 00 09:38:26
FILE "03 - Love Me.wav" WAVE
    INDEX 01 00:00:00
  TRACK 04 AUDIO
    TITLE "Alone Together"
    PERFORMER "Eric Dolphy"
    REM COMPOSER ""
    INDEX 00 03:19:67
FILE "04 - Alone Together.wav" WAVE
    INDEX 01 00:00:00
  TRACK 05 AUDIO
    TITLE "Muses for Richard Davis (Previously Unissued 1)"
    PERFORMER "Eric Dolphy"
    REM COMPOSER ""
    INDEX 00 13:36:66
FILE "05 - Muses for Richard Davis (Previously Unissued 1).wav" WAVE
    INDEX 01 00:00:00
  TRACK 06 AUDIO
    TITLE "Muses for Richard Davis (Previously Unissued 2)"
    PERFORMER "Eric Dolphy"
    REM COMPOSER ""
    INDEX 00 07:34:59
FILE "06 - Muses for Richard Davis (Previously Unissued 2).wav" WAVE
    INDEX 01 00:00:00

CD2
REM GENRE Jazz
REM DATE 2018
REM DISCID 4A0D0C06
REM COMMENT "ExactAudioCopy v1.3"
FILE "01 - Iron Man.wav" WAVE
  TRACK 01 AUDIO
    INDEX 01 00:00:00
  TRACK 02 AUDIO
    INDEX 00 09:11:30
FILE "02 - Mandrake.wav" WAVE
    INDEX 01 00:00:00
  TRACK 03 AUDIO
    INDEX 00 04:46:49
FILE "03 - Come Sunday.wav" WAVE
    INDEX 01 00:00:00
  TRACK 04 AUDIO
    INDEX 00 06:28:50
FILE "04 - Burning Spear.wav" WAVE
    INDEX 01 00:00:00
  TRACK 05 AUDIO
    INDEX 00 11:59:64
FILE "05 - Ode to Charlie Parker.wav" WAVE
    INDEX 01 00:00:00
  TRACK 06 AUDIO
    INDEX 00 08:05:10
FILE "06 - A Personal Statement.wav" WAVE
    INDEX 01 00:00:00

CD3
REM GENRE Jazz
REM DATE 2018
REM DISCID 590C6E07
REM COMMENT "ExactAudioCopy v1.3"
FILE "01 - Music Matador (Alternate Take).wav" WAVE
  TRACK 01 AUDIO
    INDEX 01 00:00:00
  TRACK 02 AUDIO
    INDEX 00 07:56:73
FILE "02 - Love Me (Alternate Take 1).wav" WAVE
    INDEX 01 00:00:00
  TRACK 03 AUDIO
    INDEX 00 02:21:55
FILE "03 - Love Me (Alternate Take 2).wav" WAVE
    INDEX 01 00:00:00
  TRACK 04 AUDIO
    INDEX 00 03:40:16
FILE "04 - Alone Together (Alternate Take).wav" WAVE
    INDEX 01 00:00:00
  TRACK 05 AUDIO
    INDEX 00 12:15:30
FILE "05 - Jitterbug Waltz (Alternate Take).wav" WAVE
    INDEX 01 00:00:00
  TRACK 06 AUDIO
    INDEX 00 09:23:17
FILE "06 - Mandrake (Alternate Take).wav" WAVE
    INDEX 01 00:00:00
  TRACK 07 AUDIO
    INDEX 00 06:40:74
FILE "07 - Burning Spear (Alternate Take).wav" WAVE
    INDEX 01 00:00:00
Приватный:
Нет (DHT включён)
Размер:
563.28 Мб (590,643,395 байт) » файлов: 32
Участники:
0 раздают, 1 качают (1 участников всего)
Внешние участники:
8 раздают, 2 качают (10 участников всего) [ Обновить ]
Скорость:
1.65 Мб/c 0/c
Никого нет на раздаче - пишите личное сообщение M0p94ok
No seeders - write personal message to M0p94ok
12:49
28
Нет комментариев. Ваш будет первым!