Поиск

2018 Hugh Coltman - Who's Happy? {Okeh 19075813142} [CD]

2018 Hugh Coltman - Who's Happy? {Okeh 19075813142} [CD]
Битрейт аудио:
lossless
Треклист:

01. Civvy Street (4:35)
02. Sugar Coated Pill (4:20)
03. The Sinner (3:33)
04. It's Your Voodoo Working (3:48)
05. Ladybird (3:48)
06. New Park Street (4:10)
07. Hand Me Downs (3:29)
08. All Slips Away (5:35)
09. Resignation Letter (4:12)
10. Sleep Late (4:06)
11. Little Big Man (3:16)

Жанр: Vocal Jazz
Носитель: CD
Страна-производитель диска (релиза): Франция
Год издания: 2018
Издатель (лейбл): Okeh
Номер по каталогу: 19075813142
Аудиокодек: FLAC (*.flac)
Тип рипа: tracks+.cue
Битрейт аудио: lossless
Продолжительность: 00:44:52
Источник: willy95100
Наличие сканов в содержимом раздачи: нет

Лог создания рипа
Exact Audio Copy V1.3 from 2. September 2016

EAC extraction logfile from 5. March 2018, 16:04

Hugh Coltman / Who's Happy

Used drive  : hp      DVD A  DH16ACSH   Adapter: 1  ID: 0

Read mode               : Secure
Utilize accurate stream : Yes
Defeat audio cache      : Yes
Make use of C2 pointers : No

Read offset correction                      : 6
Overread into Lead-In and Lead-Out          : No
Fill up missing offset samples with silence : Yes
Delete leading and trailing silent blocks   : No
Null samples used in CRC calculations       : Yes
Used interface                              : Native Win32 interface for Win NT & 2000
Gap handling                                : Appended to previous track

Used output format              : User Defined Encoder
Selected bitrate                : 1024 kBit/s
Quality                         : High
Add ID3 tag                     : No
Command line compressor         : C:\Program Files (x86)\Exact Audio Copy\Flac\flac.exe
Additional command line options : -8 -e -p -V -T "ARTIST=%artist%" -T "TITLE=%title%" -T "ALBUM=%albumtitle%" -T "DATE=%year%" -T "TRACKNUMBER=%tracknr%" -T "GENRE=%genre%" -T "PERFORMER=%albuminterpret%" -T "COMPOSER=%composer%" %haslyrics%--tag-from-file=LYRICS="%lyricsfile%"%haslyrics% -T "ALBUMARTIST=%albumartist%" -T "DISCNUMBER=%cdnumber%" -T "TOTALDISCS=%totalcds%" -T "TOTALTRACKS=%numtracks%" -T "COMMENT=%comment%" %source% -o %dest%

TOC of the extracted CD

     Track |   Start  |  Length  | Start sector | End sector
    ---------------------------------------------------------
        1  |  0:00.00 |  4:35.30 |         0    |    20654
        2  |  4:35.30 |  4:20.15 |     20655    |    40169
        3  |  8:55.45 |  3:33.11 |     40170    |    56155
        4  | 12:28.56 |  3:47.51 |     56156    |    73231
        5  | 16:16.32 |  3:47.55 |     73232    |    90311
        6  | 20:04.12 |  4:09.60 |     90312    |   109046
        7  | 24:13.72 |  3:29.30 |    109047    |   124751
        8  | 27:43.27 |  5:35.23 |    124752    |   149899
        9  | 33:18.50 |  4:12.24 |    149900    |   168823
       10  | 37:30.74 |  4:05.39 |    168824    |   187237
       11  | 41:36.38 |  3:15.53 |    187238    |   201915

Track  1

     Filename C:\EAC RIPS\Hugh Coltman\2018 - Who's Happy\Hugh Coltman - Who's Happy (2018) [FLAC] {19075813142}\01 - Civvy Street.wav

     Pre-gap length  0:00:02.00

     Peak level 88.4 %
     Extraction speed 1.9 X
     Track quality 100.0 %
     Test CRC 758FB293
     Copy CRC 758FB293
     Track not present in AccurateRip database
     Copy OK

Track  2

     Filename C:\EAC RIPS\Hugh Coltman\2018 - Who's Happy\Hugh Coltman - Who's Happy (2018) [FLAC] {19075813142}\02 - Sugar Coated Pill.wav

     Pre-gap length  0:00:01.38

     Peak level 81.1 %
     Extraction speed 2.1 X
     Track quality 100.0 %
     Test CRC 501C03C2
     Copy CRC 501C03C2
     Track not present in AccurateRip database
     Copy OK

Track  3

     Filename C:\EAC RIPS\Hugh Coltman\2018 - Who's Happy\Hugh Coltman - Who's Happy (2018) [FLAC] {19075813142}\03 - The Sinner.wav

     Pre-gap length  0:00:01.96

     Peak level 80.3 %
     Extraction speed 1.6 X
     Track quality 99.9 %
     Test CRC A5383D2E
     Copy CRC A5383D2E
     Track not present in AccurateRip database
     Copy OK

Track  4

     Filename C:\EAC RIPS\Hugh Coltman\2018 - Who's Happy\Hugh Coltman - Who's Happy (2018) [FLAC] {19075813142}\04 - It's Your Voodoo Working.wav

     Pre-gap length  0:00:01.30

     Peak level 86.8 %
     Extraction speed 2.4 X
     Track quality 100.0 %
     Test CRC 8AD8ECB2
     Copy CRC 8AD8ECB2
     Track not present in AccurateRip database
     Copy OK

Track  5

     Filename C:\EAC RIPS\Hugh Coltman\2018 - Who's Happy\Hugh Coltman - Who's Happy (2018) [FLAC] {19075813142}\05 - Ladybird.wav

     Pre-gap length  0:00:03.04

     Peak level 88.4 %
     Extraction speed 1.9 X
     Track quality 99.9 %
     Test CRC D79684E1
     Copy CRC D79684E1
     Track not present in AccurateRip database
     Copy OK

Track  6

     Filename C:\EAC RIPS\Hugh Coltman\2018 - Who's Happy\Hugh Coltman - Who's Happy (2018) [FLAC] {19075813142}\06 - New Park Street.wav

     Pre-gap length  0:00:01.69

     Peak level 79.9 %
     Extraction speed 2.7 X
     Track quality 100.0 %
     Test CRC A3677F8F
     Copy CRC A3677F8F
     Track not present in AccurateRip database
     Copy OK

Track  7

     Filename C:\EAC RIPS\Hugh Coltman\2018 - Who's Happy\Hugh Coltman - Who's Happy (2018) [FLAC] {19075813142}\07 - Hand Me Downs.wav

     Pre-gap length  0:00:01.76

     Peak level 85.8 %
     Extraction speed 2.8 X
     Track quality 100.0 %
     Test CRC 3BBB0820
     Copy CRC 3BBB0820
     Track not present in AccurateRip database
     Copy OK

Track  8

     Filename C:\EAC RIPS\Hugh Coltman\2018 - Who's Happy\Hugh Coltman - Who's Happy (2018) [FLAC] {19075813142}\08 - All Slips Away.wav

     Pre-gap length  0:00:02.16

     Peak level 87.2 %
     Extraction speed 2.4 X
     Track quality 99.9 %
     Test CRC 2C773F1E
     Copy CRC 2C773F1E
     Track not present in AccurateRip database
     Copy OK

Track  9

     Filename C:\EAC RIPS\Hugh Coltman\2018 - Who's Happy\Hugh Coltman - Who's Happy (2018) [FLAC] {19075813142}\09 - Resignation Letter.wav

     Pre-gap length  0:00:01.06

     Peak level 87.3 %
     Extraction speed 2.4 X
     Track quality 99.9 %
     Test CRC 7CE87468
     Copy CRC 7CE87468
     Track not present in AccurateRip database
     Copy OK

Track 10

     Filename C:\EAC RIPS\Hugh Coltman\2018 - Who's Happy\Hugh Coltman - Who's Happy (2018) [FLAC] {19075813142}\10 - Sleep Late.wav

     Peak level 82.3 %
     Extraction speed 3.3 X
     Track quality 100.0 %
     Test CRC C26C260C
     Copy CRC C26C260C
     Track not present in AccurateRip database
     Copy OK

Track 11

     Filename C:\EAC RIPS\Hugh Coltman\2018 - Who's Happy\Hugh Coltman - Who's Happy (2018) [FLAC] {19075813142}\11 - Little Big Man.wav

     Pre-gap length  0:00:01.41

     Peak level 81.3 %
     Extraction speed 3.3 X
     Track quality 100.0 %
     Test CRC 7EB89B0F
     Copy CRC 7EB89B0F
     Track not present in AccurateRip database
     Copy OK

None of the tracks are present in the AccurateRip database

No errors occurred

End of status report

---- AcoustID Plugin V1.2.0

Total fingerprints: 11

---- CUETools DB Plugin V2.1.6

[CTDB TOCID: ARV2wiN55dnlL5LNLCEXO_TBs94-] disk not present in database
Submit result: ARV2wiN55dnlL5LNLCEXO_TBs94- has been uploaded

==== Log checksum E8E8830D92829D56071B30F2ED6E027C85D65AB905FCB2411A88577EE7CEBF04 ====
Содержание индексной карты (.CUE)
REM GENRE Jazz
REM DATE 2018
REM DISCID 930A840B
REM COMMENT "ExactAudioCopy v1.3"
CATALOG 0190758131429
PERFORMER "Hugh Coltman"
TITLE "Who's Happy?"
FILE "01 - Civvy Street.wav" WAVE
  TRACK 01 AUDIO
    TITLE "Civvy Street"
    PERFORMER "Hugh Coltman"
    ISRC FR9W11725126
    INDEX 01 00:00:00
  TRACK 02 AUDIO
    TITLE "Sugar Coated Pill"
    PERFORMER "Hugh Coltman"
    ISRC FR9W11725127
    INDEX 00 04:34:01
FILE "02 - Sugar Coated Pill.wav" WAVE
    INDEX 01 00:00:00
  TRACK 03 AUDIO
    TITLE "The Sinner"
    PERFORMER "Hugh Coltman"
    ISRC FR9W11725128
    INDEX 00 04:18:18
FILE "03 - The Sinner.wav" WAVE
    INDEX 01 00:00:00
  TRACK 04 AUDIO
    TITLE "It's Your Voodoo Working"
    PERFORMER "Hugh Coltman"
    ISRC FR9W11725129
    INDEX 00 03:31:63
FILE "04 - It's Your Voodoo Working.wav" WAVE
    INDEX 01 00:00:00
  TRACK 05 AUDIO
    TITLE "Ladybird"
    PERFORMER "Hugh Coltman"
    ISRC FR9W11725130
    INDEX 00 03:44:48
FILE "05 - Ladybird.wav" WAVE
    INDEX 01 00:00:00
  TRACK 06 AUDIO
    TITLE "New Park Street"
    PERFORMER "Hugh Coltman"
    ISRC FR9W11725131
    INDEX 00 03:46:03
FILE "06 - New Park Street.wav" WAVE
    INDEX 01 00:00:00
  TRACK 07 AUDIO
    TITLE "Hand Me Downs"
    PERFORMER "Hugh Coltman"
    ISRC FR9W11725132
    INDEX 00 04:08:03
FILE "07 - Hand Me Downs.wav" WAVE
    INDEX 01 00:00:00
  TRACK 08 AUDIO
    TITLE "All Slips Away"
    PERFORMER "Hugh Coltman"
    ISRC FR9W11725133
    INDEX 00 03:27:18
FILE "08 - All Slips Away.wav" WAVE
    INDEX 01 00:00:00
  TRACK 09 AUDIO
    TITLE "Resignation Letter"
    PERFORMER "Hugh Coltman"
    ISRC FR9W11725134
    INDEX 00 05:34:18
FILE "09 - Resignation Letter.wav" WAVE
    INDEX 01 00:00:00
FILE "10 - Sleep Late.wav" WAVE
  TRACK 10 AUDIO
    TITLE "Sleep Late"
    PERFORMER "Hugh Coltman"
    ISRC FR9W11725135
    INDEX 01 00:00:00
  TRACK 11 AUDIO
    TITLE "Little Big Man"
    PERFORMER "Hugh Coltman"
    ISRC FR9W11725136
    INDEX 00 04:04:08
FILE "11 - Little Big Man.wav" WAVE
    INDEX 01 00:00:00
Лог проверки качества
[CUETools log; Date: 31.01.2019 0:36:43; Version: 2.1.6]
[CTDB TOCID: ARV2wiN55dnlL5LNLCEXO_TBs94-] found.
Track | CTDB Status
  1   | (39/39) Accurately ripped
  2   | (39/39) Accurately ripped
  3   | (39/39) Accurately ripped
  4   | (39/39) Accurately ripped
  5   | (39/39) Accurately ripped
  6   | (39/39) Accurately ripped
  7   | (39/39) Accurately ripped
  8   | (39/39) Accurately ripped
  9   | (39/39) Accurately ripped
 10   | (39/39) Accurately ripped
 11   | (39/39) Accurately ripped
[AccurateRip ID: 0012a63a-00a15f9c-930a840b] found.
Track   [  CRC   |   V2   ] Status
 01     [a49243f9|b36c1265] (0+9/9) Accurately ripped
 02     [145d1db9|d98e1735] (0+9/9) Accurately ripped
 03     [e5984da1|b3023888] (0+9/9) Accurately ripped
 04     [ea6cc439|9207d95e] (0+9/9) Accurately ripped
 05     [da1a1d6f|34e030ee] (0+9/9) Accurately ripped
 06     [b3cfc53c|3e51dff9] (0+9/9) Accurately ripped
 07     [2beee740|f2006a46] (0+9/9) Accurately ripped
 08     [2cf86b28|1b6302ba] (0+9/9) Accurately ripped
 09     [1edabd00|c0c33eb7] (0+9/9) Accurately ripped
 10     [918e8059|f8e2eb38] (0+9/9) Accurately ripped
 11     [7a016ebd|2fbe2cb8] (0+9/9) Accurately ripped

Track Peak [ CRC32  ] [W/O NULL] [  LOG   ]
 --   88,4 [E0097F37] [E4F32C96]
 01   88,4 [758FB293] [25F041E5]   CRC32
 02   81,1 [501C03C2] [FEE8E346]   CRC32
 03   80,3 [A5383D2E] [633BAC0F]   CRC32
 04   86,8 [8AD8ECB2] [CF5E340A]   CRC32
 05   88,4 [D79684E1] [B3C19F5D]   CRC32
 06   79,9 [A3677F8F] [24A16B5C]   CRC32
 07   85,8 [3BBB0820] [EF01183F]   CRC32
 08   87,2 [2C773F1E] [D8CFE244]   CRC32
 09   87,3 [7CE87468] [259D7FA0]   CRC32
 10   82,3 [C26C260C] [2C33DBC3]   CRC32
 11   81,3 [7EB89B0F] [30A81BD5]   CRC32
Приватный:
Нет (DHT включён)
Размер:
248.08 Мб (260,125,838 байт) » файлов: 18
Участники:
7 раздают, 0 качают (7 участников всего)
Внешние участники:
9 раздают, 3 качают (12 участников всего) [ Обновить ]
Для участников группы Pro-jazz Club: никого нет на раздаче - пишите ЛС M0p94ok
For Pro-jazz Club group members: no seeders - write PM to M0p94ok
23:13
22
Нет комментариев. Ваш будет первым!