Поиск

1991 Dave Catney - Jade Visions {Justice JR-0402-2} [CD]

1991 Dave Catney - Jade Visions {Justice JR-0402-2} [CD]
Стили:
Дата издания диска:
10 января 1992
Издатель (лейбл):
Номер по каталогу:
JR 0402-2
Носитель:
CD
Аудиокодек:
FLAC (*.flac)
Тип рипа:
tracks+.cue
Битрейт аудио:
lossless
Время звучания:
00:52:05
Наличие сканов:
только обложка
Релизёр (источник):
baltiysky
Треклист:

1. Up With The Lark (04:44)
2. The Duke (04:40)
3. Come Rain Or Shine (06:58)
4. Gentle Wind And Falling Tear (05:16)
5. Jade Visions (03:42)
6. Waste Not Want Not (04:36)
7. This Is New (06:56)
8. Fool Moon (06:04)
9. Dr. Jackle (06:09)
10. Lost In The Stars (03:00)

Лог создания рипа
Exact Audio Copy V1.0 beta 3 from 29. August 2011

EAC extraction logfile from 5. August 2014, 16:44

Dave Catney / Jade Visions

Used drive  : ASUS    DRW-20B1LT   Adapter: 0  ID: 0

Read mode               : Secure
Utilize accurate stream : Yes
Defeat audio cache      : Yes
Make use of C2 pointers : No

Read offset correction                      : 6
Overread into Lead-In and Lead-Out          : No
Fill up missing offset samples with silence : Yes
Delete leading and trailing silent blocks   : No
Null samples used in CRC calculations       : Yes
Used interface                              : Native Win32 interface for Win NT & 2000
Gap handling                                : Appended to previous track

Used output format              : User Defined Encoder
Selected bitrate                : 128 kBit/s
Quality                         : High
Add ID3 tag                     : Yes
Command line compressor         : C:\Program Files (x86)\Exact Audio Copy\Flac\flac.exe
Additional command line options : -8 -V -T "ARTIST=%artist%" -T "TITLE=%title%" -T "ALBUM=%albumtitle%" -T "DATE=%year%" -T "TRACKNUMBER=%tracknr%" -T "GENRE=%genre%" -T "PERFORMER=%albuminterpret%" -T "COMPOSER=%composer%" %haslyrics%--tag-from-file=LYRICS="%lyricsfile%"%haslyrics% -T "ALBUMARTIST=%albumartist%" -T "DISCNUMBER=%cdnumber%" -T "TOTALDISCS=%totalcds%" -T "TOTALTRACKS=%numtracks%" -T "COMMENT=%comment%" %source% -o %dest%


TOC of the extracted CD

     Track |   Start  |  Length  | Start sector | End sector 
    ---------------------------------------------------------
        1  |  0:00.00 |  4:47.65 |         0    |    21589   
        2  |  4:47.65 |  4:25.12 |     21590    |    41476   
        3  |  9:13.02 |  6:58.65 |     41477    |    72891   
        4  | 16:11.67 |  5:17.65 |     72892    |    96731   
        5  | 21:29.57 |  3:44.00 |     96732    |   113531   
        6  | 25:13.57 |  4:38.53 |    113532    |   134434   
        7  | 29:52.35 |  6:58.22 |    134435    |   165806   
        8  | 36:50.57 |  6:00.40 |    165807    |   192846   
        9  | 42:51.22 |  6:13.18 |    192847    |   220839   
       10  | 49:04.40 |  2:47.37 |    220840    |   233401   


Track  1

     Filename F:\Music\Dave Catney - Jade Visions (1991) [FLAC]\01 - Up With the Lark.wav

     Pre-gap length  0:00:02.00

     Peak level 70.7 %
     Extraction speed 3.5 X
     Track quality 100.0 %
     Test CRC FDA462DE
     Copy CRC FDA462DE
     Accurately ripped (confidence 2)  [B6F5DE20]  (AR v2)
     Copy OK

Track  2

     Filename F:\Music\Dave Catney - Jade Visions (1991) [FLAC]\02 - The Duke.wav

     Pre-gap length  0:00:02.44

     Peak level 54.5 %
     Extraction speed 3.9 X
     Track quality 100.0 %
     Test CRC 548571D7
     Copy CRC 548571D7
     Accurately ripped (confidence 3)  [BF7D7DC1]  (AR v1)
     Copy OK

Track  3

     Filename F:\Music\Dave Catney - Jade Visions (1991) [FLAC]\03 - Come Rain or Come Shine.wav

     Pre-gap length  0:00:01.42

     Peak level 85.1 %
     Extraction speed 4.6 X
     Track quality 100.0 %
     Test CRC 02741F5A
     Copy CRC 02741F5A
     Accurately ripped (confidence 3)  [1F5D2032]  (AR v1)
     Copy OK

Track  4

     Filename F:\Music\Dave Catney - Jade Visions (1991) [FLAC]\04 - Gentle Wind and Falling Tear.wav

     Pre-gap length  0:00:02.09

     Peak level 85.7 %
     Extraction speed 5.0 X
     Track quality 100.0 %
     Test CRC 735D0442
     Copy CRC 735D0442
     Accurately ripped (confidence 2)  [D40ED1F4]  (AR v2)
     Copy OK

Track  5

     Filename F:\Music\Dave Catney - Jade Visions (1991) [FLAC]\05 - Jade Visions.wav

     Pre-gap length  0:00:01.42

     Peak level 45.7 %
     Extraction speed 5.0 X
     Track quality 100.0 %
     Test CRC 86DA37E5
     Copy CRC 86DA37E5
     Accurately ripped (confidence 2)  [60619B07]  (AR v2)
     Copy OK

Track  6

     Filename F:\Music\Dave Catney - Jade Visions (1991) [FLAC]\06 - Waste Not, Want Not.wav

     Pre-gap length  0:00:00.60

     Peak level 71.2 %
     Extraction speed 5.5 X
     Track quality 100.0 %
     Test CRC 21A0E971
     Copy CRC 21A0E971
     Accurately ripped (confidence 3)  [0A893F65]  (AR v1)
     Copy OK

Track  7

     Filename F:\Music\Dave Catney - Jade Visions (1991) [FLAC]\07 - This Is New.wav

     Pre-gap length  0:00:01.06

     Peak level 86.8 %
     Extraction speed 5.3 X
     Track quality 99.9 %
     Test CRC A733A4D6
     Copy CRC A733A4D6
     Accurately ripped (confidence 2)  [0DBA7438]  (AR v2)
     Copy OK

Track  8

     Filename F:\Music\Dave Catney - Jade Visions (1991) [FLAC]\08 - Fool Moon.wav

     Pre-gap length  0:00:00.26

     Peak level 63.7 %
     Extraction speed 5.5 X
     Track quality 99.9 %
     Test CRC E971AEF0
     Copy CRC E971AEF0
     Accurately ripped (confidence 2)  [F1B91F0A]  (AR v2)
     Copy OK

Track  9

     Filename F:\Music\Dave Catney - Jade Visions (1991) [FLAC]\09 - Dr. Jackle.wav

     Pre-gap length  0:00:01.76

     Peak level 91.6 %
     Extraction speed 6.7 X
     Track quality 100.0 %
     Test CRC 194008DC
     Copy CRC 194008DC
     Accurately ripped (confidence 3)  [93425607]  (AR v1)
     Copy OK

Track 10

     Filename F:\Music\Dave Catney - Jade Visions (1991) [FLAC]\10 - Lost in the Stars.wav

     Pre-gap length  0:00:01.46

     Peak level 48.9 %
     Extraction speed 6.2 X
     Track quality 100.0 %
     Test CRC D1C44D05
     Copy CRC D1C44D05
     Accurately ripped (confidence 3)  [262E27C9]  (AR v1)
     Copy OK


All tracks accurately ripped

No errors occurred

End of status report

---- CUETools DB Plugin V2.1.3

[CTDB TOCID: p2GAlznM4UhesZ0Qv.KiGhpqdPA-] disk not present in database, Submit result: p2GAlznM4UhesZ0Qv.KiGhpqdPA- has been uploaded


==== Log checksum 87EA21E3ED18EDA80862306BA2EA44DB1CD476C8B029F1A4551FD478665E6434 ====
Содержание индексной карты (.CUE)
REM GENRE Jazz
REM DATE 1991
REM DISCID 920C280A
REM COMMENT "ExactAudioCopy v1.0b3"
PERFORMER "Dave Catney"
TITLE "Jade Visions"
FILE "01 - Up With the Lark.wav" WAVE
  TRACK 01 AUDIO
    TITLE "Up With the Lark"
    PERFORMER "Dave Catney"
    INDEX 01 00:00:00
  TRACK 02 AUDIO
    TITLE "The Duke"
    PERFORMER "Dave Catney"
    INDEX 00 04:45:32
FILE "02 - The Duke.wav" WAVE
    INDEX 01 00:00:00
  TRACK 03 AUDIO
    TITLE "Come Rain or Come Shine"
    PERFORMER "Dave Catney"
    INDEX 00 04:23:55
FILE "03 - Come Rain or Come Shine.wav" WAVE
    INDEX 01 00:00:00
  TRACK 04 AUDIO
    TITLE "Gentle Wind and Falling Tear"
    PERFORMER "Dave Catney"
    INDEX 00 06:56:58
FILE "04 - Gentle Wind and Falling Tear.wav" WAVE
    INDEX 01 00:00:00
  TRACK 05 AUDIO
    TITLE "Jade Visions"
    PERFORMER "Dave Catney"
    INDEX 00 05:16:33
FILE "05 - Jade Visions.wav" WAVE
    INDEX 01 00:00:00
  TRACK 06 AUDIO
    TITLE "Waste Not, Want Not"
    PERFORMER "Dave Catney"
    INDEX 00 03:43:30
FILE "06 - Waste Not, Want Not.wav" WAVE
    INDEX 01 00:00:00
  TRACK 07 AUDIO
    TITLE "This Is New"
    PERFORMER "Dave Catney"
    INDEX 00 04:37:48
FILE "07 - This Is New.wav" WAVE
    INDEX 01 00:00:00
  TRACK 08 AUDIO
    TITLE "Fool Moon"
    PERFORMER "Dave Catney"
    INDEX 00 06:58:02
FILE "08 - Fool Moon.wav" WAVE
    INDEX 01 00:00:00
  TRACK 09 AUDIO
    TITLE "Dr. Jackle"
    PERFORMER "Dave Catney"
    INDEX 00 05:58:58
FILE "09 - Dr. Jackle.wav" WAVE
    INDEX 01 00:00:00
  TRACK 10 AUDIO
    TITLE "Lost in the Stars"
    PERFORMER "Dave Catney"
    INDEX 00 06:11:58
FILE "10 - Lost in the Stars.wav" WAVE
    INDEX 01 00:00:00
Лог проверки качества
[CUETools log; Date: 13.02.2019 10:48:35; Version: 2.1.6]
[CTDB TOCID: p2GAlznM4UhesZ0Qv.KiGhpqdPA-] found.
        [ CTDBID ] Status
        [16d5a767] (4/4) Accurately ripped
Track | CTDB Status
  1   | (4/4) Accurately ripped
  2   | (4/4) Accurately ripped
  3   | (4/4) Accurately ripped
  4   | (4/4) Accurately ripped
  5   | (4/4) Accurately ripped
  6   | (4/4) Accurately ripped
  7   | (4/4) Accurately ripped
  8   | (4/4) Accurately ripped
  9   | (4/4) Accurately ripped
 10   | (4/4) Accurately ripped
[AccurateRip ID: 0013bcf2-009ebca2-920c280a] found.
Track   [  CRC   |   V2   ] Status
 01     [1e4ce52e|b6f5de20] (4+3/7) Accurately ripped
 02     [bf7d7dc1|d526b3c5] (3+0/3) Accurately ripped
 03     [1f5d2032|34cff342] (3+0/3) Accurately ripped
 04     [1566a5e9|d40ed1f4] (4+3/7) Accurately ripped
 05     [d4ceea71|60619b07] (3+3/6) Accurately ripped
 06     [0a893f65|72d53232] (3+0/3) Accurately ripped
 07     [1725b14e|0dba7438] (4+3/7) Accurately ripped
 08     [3167bac1|f1b91f0a] (4+3/7) Accurately ripped
 09     [93425607|2820ef30] (3+0/3) Accurately ripped
 10     [262e27c9|7b3ef1a2] (3+0/3) Accurately ripped

Track Peak [ CRC32  ] [W/O NULL] [  LOG   ]
 --   91,6 [A99DF15D] [799B677E]           
 01   70,7 [FDA462DE] [371A780A]   CRC32   
 02   54,5 [548571D7] [E9BDD0EE]   CRC32   
 03   85,1 [02741F5A] [12FB292D]   CRC32   
 04   85,7 [735D0442] [7AEBCB76]   CRC32   
 05   45,7 [86DA37E5] [7A8738BA]   CRC32   
 06   71,2 [21A0E971] [A6DC132A]   CRC32   
 07   86,8 [A733A4D6] [8A62262F]   CRC32   
 08   63,7 [E971AEF0] [9C93C0AD]   CRC32   
 09   91,6 [194008DC] [6091CDE4]   CRC32   
 10   48,9 [D1C44D05] [282B8A81]   CRC32   
Скачивание доступно после регистрации!!
Приватный:
Нет (DHT включён)
Размер:
251.12 Мб (263,314,885 байт) » файлов: 14
Участники:
2 раздают, 0 качают (2 участников всего)
Внешние участники:
--- [ Обновить ]
11:54
7
13:08