Поиск

1962 Peggy Lee - Blues Cross Country (2014 Mono Version) {BnF Collection} [24-96]

1962 Peggy Lee - Blues Cross Country (2014 Mono Version) {BnF Collection} [24-96]
Стили:
Дата записи диска:
апрель 1961 - май 1966
Место записи:
Capitol studios, Los Angeles, CA, USA
Носитель:
WEB
Формат:
PCM
Тип рипа:
tracks+.cue
Количество каналов:
mono
Разрядность/ЧД:
24/96
Битрейт аудио:
lossless
Время звучания:
00:31:51
Наличие сканов:
да
Страна-производитель диска (релиза):
USA
Релизёр (источник):
M0p94ok
Лог проверки качества
foobar2000 1.3.16 / Dynamic Range Meter 1.1.1
log date: 2019-03-24 23:27:45

--------------------------------------------------------------------------------
Analyzed: Peggy Lee / Blues Cross Country (Mono Version)
--------------------------------------------------------------------------------

DR         Peak         RMS     Duration Track
--------------------------------------------------------------------------------
DR11      -5.04 dB   -18.71 dB      2:31 01-Kansas City
DR12      -6.73 dB   -21.80 dB      3:06 02-Basin Street Blues
DR12      -5.51 dB   -20.08 dB      2:38 03-Los Angeles Blues
DR11      -6.15 dB   -20.06 dB      2:54 04-I Lost My Sugar in Salt Lake City
DR12      -5.18 dB   -19.43 dB      1:53 05-The Grain Belt Blues
DR10      -5.91 dB   -19.79 dB      3:24 06-New-York City Blues
DR10      -7.25 dB   -20.04 dB      2:37 07-Goin' to Chicago Blues
DR10      -7.08 dB   -19.32 dB      2:38 08-San Francisco Blues
DR9       -8.91 dB   -20.75 dB      3:11 09-Fisherman's Wharf
DR11      -6.29 dB   -19.01 dB      2:06 10-Boston Beans
DR10      -8.16 dB   -21.37 dB      2:42 11-The Train Blues
DR10      -7.93 dB   -19.45 dB      2:17 12-St. Louis Blues
--------------------------------------------------------------------------------

Number of tracks:  12
Official DR value: DR11

Samplerate:        96000 Hz
Channels:          2
Bits per sample:   24
Bitrate:           1401 kbps
Codec:             FLAC
================================================================================
No seeders - write personal message to M0p94ok. Any questions - support@pro-jazz.com.
Нет сидеров - пишите в личку M0p94ok. Есть вопросы - support@pro-jazz.com
13:45
218
Нет комментариев. Ваш будет первым!