Поиск

2015 Robert Glasper - Covered (Recorded Live At Capitol Studios) {Blue Note} [24-96]

2015 Robert Glasper - Covered (Recorded Live At Capitol Studios) {Blue Note} [24-96]
Стили:
Дата записи диска:
2-3 декабря 2014
Место записи:
Capitol Studios, Hollywood, CA, USA; Qmillion Studio, Los Angeles, CA, USA
Дата издания диска:
16 июня 2015
Издатель (лейбл):
Номер по каталогу:
0602547245700
Носитель:
WEB
Формат:
PCM
Тип рипа:
tracks+.cue
Количество каналов:
2.0
Разрядность/ЧД:
24/96
Битрейт аудио:
lossless
Время звучания:
01:11:54
Наличие сканов:
web
Страна-производитель диска (релиза):
USA
Релизёр (источник):
M0p94ok
Лог проверки качества
foobar2000 1.5.5 / Dynamic Range Meter 1.1.1
log date: 2020-11-03 18:02:29

--------------------------------------------------------------------------------
Analyzed: Harry Belafonte / Covered (The Robert Glasper Trio Recorded Live At Capitol Studios) (1)
          Robert Glasper / Covered (The Robert Glasper Trio Recorded Live At Capitol Studios) (2-12)
--------------------------------------------------------------------------------

DR         Peak         RMS     Duration Track
--------------------------------------------------------------------------------
DR8       -0.04 dB   -11.80 dB      2:08 11-Got Over
DR17      -1.68 dB   -23.24 dB      2:13 01-Intro
DR8       -0.08 dB   -10.22 dB      7:42 02-I Don't Even Care
DR8       -0.08 dB   -10.73 dB      5:07 03-Reckoner
DR9       -0.08 dB   -10.94 dB      7:07 04-Barangrill
DR8       -0.08 dB   -11.70 dB     13:01 05-In Case You Forgot
DR11      -0.08 dB   -14.26 dB      7:40 06-So Beautiful
DR8       -0.08 dB   -10.70 dB      5:22 07-The Worst
DR7       -0.08 dB    -9.49 dB      4:51 08-Good Morning
DR8       -0.08 dB    -9.80 dB      4:38 09-Stella By Starlight
DR9       -0.08 dB   -13.33 dB      7:38 10-Levels
DR10      -0.08 dB   -11.77 dB      4:33 12-I'm Dying Of Thirst
--------------------------------------------------------------------------------

Number of tracks:  12
Official DR value: DR9

Samplerate:        96000 Hz
Channels:          2
Bits per sample:   24
Bitrate:           2121 kbps
Codec:             FLAC
================================================================================
No seeders - write personal message to M0p94ok. Any questions - support@pro-jazz.com.
Нет сидеров - пишите в личку M0p94ok. Есть вопросы - support@pro-jazz.com
22:08
158
Нет комментариев. Ваш будет первым!