Поиск

2015 VA - Nina Revisited - A Tribute To Nina Simone {Revive, RCA} [24-44,1]

2015 VA - Nina Revisited - A Tribute To Nina Simone {Revive, RCA} [24-44,1]
Издатель (лейбл):
Носитель:
WEB
Формат:
PCM
Тип рипа:
tracks+.cue
Количество каналов:
2.0
Разрядность/ЧД:
24/44,1
Битрейт аудио:
lossless
Время звучания:
01:15:40
Наличие сканов:
web
Страна-производитель диска (релиза):
USA
Релизёр (источник):
M0p94ok
Лог проверки качества
foobar2000 1.5.5 / Dynamic Range Meter 1.1.1
log date: 2020-11-03 17:41:27

--------------------------------------------------------------------------------
Analyzed: Alice Smith / Nina Revisited: A Tribute To Nina Simone (1)
          Common / Nina Revisited: A Tribute To Nina Simone (2)
          Grace / Nina Revisited: A Tribute To Nina Simone (3)
          Gregory Porter / Nina Revisited: A Tribute To Nina Simone (4)
          Jazmine Sullivan / Nina Revisited: A Tribute To Nina Simone (5)
          Lisa Simone / Nina Revisited: A Tribute To Nina Simone (6)
          Mary J. Blige / Nina Revisited: A Tribute To Nina Simone (7)
          Ms. Lauryn Hill / Nina Revisited: A Tribute To Nina Simone (8-13)
          Nina Simone / Nina Revisited: A Tribute To Nina Simone (14)
          Usher / Nina Revisited: A Tribute To Nina Simone (15)
          Various Interprets / Nina Revisited: A Tribute To Nina Simone (16)
--------------------------------------------------------------------------------

DR         Peak         RMS     Duration Track
--------------------------------------------------------------------------------
DR9        0.00 dB   -12.87 dB      6:40 11-I Put A Spell On You
DR7        0.00 dB    -9.41 dB      3:24 10-We Are Young Gifted & Black
DR7        0.00 dB    -8.68 dB      4:31 06-Love Me Or Leave Me
DR6        0.00 dB    -8.50 dB      6:03 09-Sinnerman
DR8        0.00 dB   -10.14 dB      5:03 05-Baltimore
DR8        0.00 dB    -9.98 dB      2:56 12-I Want A Little Sugar In My Bowl
DR7        0.00 dB    -9.37 dB      4:17 08-Don't Let Me Be Misunderstood
DR6        0.00 dB    -8.53 dB      4:03 02-Feeling Good
DR7        0.00 dB    -8.42 dB      7:28 03-I've Got Life (Version)
DR8        0.00 dB   -11.36 dB      3:45 04-Ne Me Quitte Pas
DR6        0.00 dB    -8.75 dB      7:15 13-Black Is the Color of My True Love's Hair
DR8        0.00 dB   -11.42 dB      6:45 14-Wild Is The Wind
DR8        0.00 dB    -8.96 dB      5:14 15-African Mailman (Instrumental)
DR8        0.00 dB   -10.29 dB      3:09 16-I Wish I Knew How It Would Feel to Be Free
DR8       -0.44 dB    -9.24 dB      3:59 07-My Baby Just Cares For Me
DR9        0.00 dB   -11.93 dB      1:15 01-My Mama Could Sing (Intro)
--------------------------------------------------------------------------------

Number of tracks:  16
Official DR value: DR7

Samplerate:        44100 Hz
Channels:          2
Bits per sample:   24
Bitrate:           1377 kbps
Codec:             FLAC
================================================================================
No seeders - write personal message to M0p94ok. Any questions - support@pro-jazz.com.
Нет сидеров - пишите в личку M0p94ok. Есть вопросы - support@pro-jazz.com
18:54
254
Нет комментариев. Ваш будет первым!