Поиск

2016 Stanley Clarke - Barbershop - The Next Cut {Sony Classical} [24-44,1]

2016 Stanley Clarke - Barbershop - The Next Cut {Sony Classical} [24-44,1]
Издатель (лейбл):
Носитель:
WEB
Формат:
PCM
Тип рипа:
tracks+.cue
Количество каналов:
2.0
Разрядность/ЧД:
24/44,1
Битрейт аудио:
lossless
Время звучания:
00:46:58
Наличие сканов:
web
Страна-производитель диска (релиза):
USA
Релизёр (источник):
M0p94ok
Лог проверки качества
foobar2000 1.3.16 / Dynamic Range Meter 1.1.1
log date: 2019-03-24 23:27:56

--------------------------------------------------------------------------------
Analyzed: Stanley Clarke / Barbershop: The Next Cut (Original Score Soundtrack)
--------------------------------------------------------------------------------

DR         Peak         RMS     Duration Track
--------------------------------------------------------------------------------
DR7       -0.60 dB    -8.53 dB      2:54 01-Caution
DR8       -0.60 dB   -11.30 dB      1:54 02-Brother One Stop
DR8       -0.60 dB   -13.84 dB      1:11 03-When You Find the Right Girl
DR8       -0.60 dB   -13.41 dB      2:55 04-Shenanigans and Other Stuff
DR6       -0.60 dB    -8.28 dB      3:40 05-Disturbed
DR7       -0.60 dB    -9.35 dB      3:29 06-Terri Apologizes to Rashad
DR7       -0.44 dB   -11.45 dB      2:18 07-Terri Catches Rashad and Draya
DR10      -0.60 dB   -15.71 dB      1:43 08-Eddie's Scared
DR8       -0.60 dB   -12.56 dB      3:21 09-Oh Sheeit
DR6       -0.60 dB    -9.09 dB      4:41 10-Ruffneck
DR9       -0.60 dB   -11.55 dB      0:55 11-Sneaky
DR10      -1.17 dB   -16.43 dB      0:48 12-Calvin's Theme
DR6       -0.60 dB    -8.40 dB      1:08 13-Damn Draya!!!
DR7       -0.60 dB    -9.79 dB      1:02 14-Non-Refundable
DR6       -0.60 dB   -10.48 dB      2:07 15-Cal and Rashad Set Up Marquis and J
DR7       -0.60 dB   -10.21 dB      2:30 16-Mean Ass Mabel
DR7       -0.60 dB   -14.27 dB      2:05 17-Terri and Rashad No Peace
DR11      -1.30 dB   -16.90 dB      4:05 18-Calvin Blows Up
DR7       -0.60 dB   -11.76 dB      3:20 19-Calvin and Jalen
DR7       -0.60 dB   -10.93 dB      0:55 20-Peace in the Land of Chicago
--------------------------------------------------------------------------------

Number of tracks:  20
Official DR value: DR8

Samplerate:        44100 Hz
Channels:          2
Bits per sample:   24
Bitrate:           1388 kbps
Codec:             FLAC
================================================================================
No seeders - write personal message to M0p94ok. Any questions - support@pro-jazz.com.
Нет сидеров - пишите в личку M0p94ok. Есть вопросы - support@pro-jazz.com
15:26
192
Нет комментариев. Ваш будет первым!