Вы используете незарегистрированную версию компонента "Вкладки"!

Поиск

2019 Théo Ceccaldi, Roberto Negro - Montevago {Full Rhizome} [24-48]

2019 Théo Ceccaldi, Roberto Negro - Montevago {Full Rhizome} [24-48]
Дата записи диска:
29 августа - 1 сентября 2018
Место записи:
Maison De La Musique, Nanterre, France
Номер по каталогу:
BRO19A
Носитель:
WEB
Формат:
PCM
Тип рипа:
tracks+.cue
Количество каналов:
2.0
Разрядность/ЧД:
24/48
Битрейт аудио:
lossless
Время звучания:
00:42:42
Наличие сканов:
web
Страна-производитель диска (релиза):
France
Релизёр (источник):
M0p94ok
Лог проверки качества
foobar2000 1.3.16 / Dynamic Range Meter 1.1.1
log date: 2019-03-09 01:33:17

--------------------------------------------------------------------------------
Analyzed: Théo Ceccaldi, Roberto Negro / Montevago
--------------------------------------------------------------------------------

DR         Peak         RMS     Duration Track
--------------------------------------------------------------------------------
DR10      -0.90 dB   -14.81 dB      2:54 01-Il était une fois deux fois trois fois
DR9       -0.89 dB   -10.87 dB      3:35 02-Mai juin juinjuillet juin janvier
DR8       -0.87 dB   -12.83 dB      8:04 03-Aiutamicristo
DR9       -0.85 dB   -13.58 dB      4:47 04-Zodiac poisson
DR11      -0.91 dB   -15.05 dB      2:27 05-Nera nera
DR8       -0.51 dB    -9.80 dB      2:50 06-Romeo rodeo
DR11      -2.56 dB   -17.50 dB      4:32 07-Comète
DR10      -0.86 dB   -11.90 dB      1:20 08-Pinball cantabile
DR8       -0.88 dB   -11.60 dB      4:57 09-C'est chaud c'est glacé
DR11      -0.90 dB   -14.15 dB      7:23 10-Tarantella
--------------------------------------------------------------------------------

Number of tracks:  10
Official DR value: DR9

Samplerate:        48000 Hz
Channels:          2
Bits per sample:   24
Bitrate:           1373 kbps
Codec:             FLAC
================================================================================
Any questions - support@pro-jazz.com. Есть вопросы - support@pro-jazz.com
15:12
203
Нет комментариев. Ваш будет первым!