Поиск

2011 Uri Caine Trio - Siren {Winter & Winter} [24-88,2]

2011 Uri Caine Trio - Siren {Winter & Winter} [24-88,2]
Дата записи диска:
сентябрь 2010
Место записи:
Sear Sound Studio, New York City, NY, USA
Дата издания диска:
9 июня 2011
Номер по каталогу:
910 177-2
Носитель:
WEB
Формат:
PCM
Тип рипа:
tracks+.cue
Количество каналов:
2.0
Разрядность/ЧД:
24/88,2
Битрейт аудио:
lossless
Время звучания:
00:51:33
Наличие сканов:
да
Наличие водяных знаков:
нет
Страна-производитель диска (релиза):
Germany
Релизёр (источник):
M0p94ok

Треклист:

01. Tarshish  02:19
02. Interloper  04:19
03. Siren  04:46
04. Crossbow  04:16
05. Smelly  05:16
06. Succubus  04:23
07. Green Dolphin Street  05:52
08. Foolish Me  04:33
09. Calibrated Thickness  02:10
10. Hazy Lazy Crazy  04:31
11. Free Lunch  04:53
12. Manual Defile  04:14

Лог проверки качества
foobar2000 1.3.16 / Dynamic Range Meter 1.1.1
log date: 2019-03-13 17:41:00

--------------------------------------------------------------------------------
Analyzed: Uri Caine Trio / Siren
--------------------------------------------------------------------------------

DR         Peak         RMS     Duration Track
--------------------------------------------------------------------------------
DR15      -1.81 dB   -19.67 dB      2:19 01-Tarshish
DR17      -0.34 dB   -20.60 dB      4:20 02-Interloper
DR13      -7.11 dB   -26.12 dB      4:47 03-Siren
DR15       0.00 dB   -18.85 dB      4:17 04-Crossbow
DR17      -1.69 dB   -24.16 dB      5:16 05-Smelly
DR15       0.00 dB   -19.14 dB      4:23 06-Succubus
DR15      -1.01 dB   -20.64 dB      5:53 07-Green Dolphin Street
DR15      -8.50 dB   -27.95 dB      4:33 08-Foolish Me
DR16      -1.30 dB   -20.17 dB      2:10 09-Calibrated Thickness
DR17      -2.06 dB   -23.28 dB      4:32 10-Hazy Lazy Crazy
DR16      -1.82 dB   -21.65 dB      4:53 11-Free Lunch
DR15      -0.65 dB   -19.59 dB      4:15 12-Manual Defile
--------------------------------------------------------------------------------

Number of tracks:  12
Official DR value: DR16

Samplerate:        88200 Hz
Channels:          2
Bits per sample:   24
Bitrate:           2506 kbps
Codec:             FLAC
================================================================================
Приватный:
Да (DHT отключён)
Размер:
901.36 Мб (945,148,472 байт) » файлов: 15
Участники:
6 раздают, 0 качают (6 участников всего)
Внешние участники:
--- [ Обновить ]
No seeders - write personal message to M0p94ok. Any questions - support@pro-jazz.com.
Нет сидеров - пишите в личку M0p94ok. Есть вопросы - support@pro-jazz.com
17:26
154
Нет комментариев. Ваш будет первым!