Вы используете незарегистрированную версию компонента "Вкладки"!

Поиск

2019 Antonio Carlos Jobim - The Antonio Carlos Jobim Songbook {RevOla} [24-44,1]

2019 Antonio Carlos Jobim - The Antonio Carlos Jobim Songbook {RevOla} [24-44,1]
Издатель (лейбл):
Носитель:
WEB
Формат:
PCM
Тип рипа:
tracks+.cue
Количество каналов:
2.0
Битрейт аудио:
lossless
Время звучания:
01:05:43
Наличие сканов:
web
Страна-производитель диска (релиза):
Brazil
Релизёр (источник):
M0p94ok
Лог проверки качества
foobar2000 1.3.16 / Dynamic Range Meter 1.1.1
log date: 2019-03-25 01:01:51

--------------------------------------------------------------------------------
Analyzed: Antonio Carlos Jobim / The Antonio Carlos Jobim Songbook
--------------------------------------------------------------------------------

DR         Peak         RMS     Duration Track
--------------------------------------------------------------------------------
DR12     -10.30 dB   -28.20 dB      2:41 01-The Girl from Ipanema
DR10     -13.21 dB   -26.29 dB      3:19 02-Quiet Nights of Quiet Stars (Corcovado)
DR13      -9.27 dB   -26.88 dB      2:42 03-Felicidade
DR13     -10.49 dB   -26.34 dB      6:50 04-O Morro Não Tem Vez
DR12      -7.81 dB   -24.53 dB      2:17 05-Agua de Beber
DR13      -7.10 dB   -25.85 dB      2:15 06-So Danço Samba
DR13     -10.84 dB   -26.49 dB      3:45 07-Insensatez
DR14      -6.37 dB   -25.91 dB      6:58 08-Once I Loved (O Amor en Paz)
DR14      -8.19 dB   -26.19 dB      6:11 09-Samba De Uma Nota So
DR14      -6.13 dB   -25.55 dB      4:01 10-Meditação
DR12     -11.94 dB   -26.14 dB      2:10 11-Desafinado
DR12     -10.20 dB   -25.53 dB      2:40 12-Dindi
DR11     -11.05 dB   -24.99 dB      6:04 13-Wave
DR12      -9.36 dB   -26.28 dB      3:32 14-Águas de Março
DR15      -8.88 dB   -27.32 dB     10:19 15-Chega de Saudade
--------------------------------------------------------------------------------

Number of tracks:  15
Official DR value: DR13

Samplerate:        44100 Hz
Channels:          2
Bits per sample:   24
Bitrate:           1326 kbps
Codec:             FLAC
================================================================================
Any questions - support@pro-jazz.com. Есть вопросы - support@pro-jazz.com
20:46
244
Нет комментариев. Ваш будет первым!