Поиск

2020 Dan Weiss Starebaby - Natural Selection {Pi} [24-96]

2020 Dan Weiss Starebaby - Natural Selection {Pi} [24-96]
Дата издания диска:
18 сентября 2020
Битрейт аудио:
lossless
Доп. инфо:

Формат записи/Источник записи: [TR24][OF]
Год издания: 2020
Издатель (лейбл): Pi Recordings
Продолжительность: 01:18:17
Контейнер: FLAC (*.flac)
Тип рипа: tracks
Разрядность: 24/96
Количество каналов: 2.0
Источник (релизер): WEB
Наличие сканов в содержимом раздачи: Буклет PDF

Лог проверки качества
foobar2000 1.5 / Dynamic Range Meter 1.1.1
log date: 2020-09-27 04:47:31

--------------------------------------------------------------------------------
Analyzed: Dan Weiss / Natural Selection
--------------------------------------------------------------------------------

DR         Peak         RMS     Duration Track
--------------------------------------------------------------------------------
DR13      -0.34 dB   -16.63 dB     13:00 ?-Episode 18
DR15      -0.40 dB   -18.39 dB      6:05 ?-Dawn
DR13      -0.36 dB   -15.47 dB      7:09 ?-The Long Diagonal
DR14      -0.37 dB   -20.18 dB     14:00 ?-A Taste of a Memory
DR12      -0.46 dB   -17.68 dB      6:17 ?-Today is Wednesday Tomorrow
DR15      -0.40 dB   -19.81 dB      8:08 ?-Bridge of Trust
DR16      -0.34 dB   -19.02 dB     15:02 ?-Acinna
DR16      -0.41 dB   -18.37 dB      8:36 ?-Head Wreck
--------------------------------------------------------------------------------

Number of tracks:  8
Official DR value: DR14

Samplerate:        96000 Hz
Channels:          2
Bits per sample:   24
Bitrate:           2795 kbps
Codec:             FLAC
================================================================================
No seeders - write personal message to M0p94ok. Any questions - support@pro-jazz.com.
Нет сидеров - пишите в личку M0p94ok. Есть вопросы - support@pro-jazz.com
21:05
222
Нет комментариев. Ваш будет первым!