Поиск

2020 Joe Farnsworth - Time to Swing {Smoke Sessions} [24-96]

2020 Joe Farnsworth - Time to Swing {Smoke Sessions} [24-96]
Стили:
Дата записи диска:
17 декабря 2019
Место записи:
Sear Sound Studio A, New York City, NY, USA
Дата издания диска:
18 сентября 2020
Издатель (лейбл):
Номер по каталогу:
SSR2006CD
Битрейт аудио:
lossless

Треклист:

01 The Good Shepherd 7:38
02 Hesitation 5:09
03 Darn That Dream 7:30
04 Down by the Riverside 5:29
05 One for Jimmy Cobb 6:09
06 Lemuria 4:38
07 Prelude to a Kiss 7:11
08 Monk's Dream 7:39
09 The Star-Crossed Lovers 5:31
10 Time Was 4:48

Доп. инфо:

Формат записи/Источник записи: [TR24][OF]
Год издания/переиздания диска: 2020
Продолжительность: 01:01:42
Наличие сканов в содержимом раздачи: Нет

Контейнер: FLAC (*.flac)
Тип рипа: tracks
Разрядность: 24/96
Количество каналов: 2.0

Лог проверки качества
foobar2000 1.4.3 / Dynamic Range Meter 1.1.1
log date: 2020-09-16 21:41:34

--------------------------------------------------------------------------------
Analyzed: Joe Farnsworth / Time to Swing
--------------------------------------------------------------------------------

DR         Peak         RMS     Duration Track
--------------------------------------------------------------------------------
DR8       -1.40 dB   -10.99 dB      5:29 01-Down by the Riverside
DR14      -1.40 dB   -18.15 dB      5:31 02-The Star-Crossed Lovers
DR10      -1.40 dB   -16.09 dB      6:09 03-One for Jimmy Cobb
DR11      -1.40 dB   -14.19 dB      4:48 04-Time Was
DR11      -1.40 dB   -14.46 dB      7:38 05-The Good Shepherd
DR10      -1.40 dB   -12.87 dB      4:39 06-Lemuria
DR9       -1.40 dB   -12.87 dB      5:10 07-Hesitation
DR10      -1.40 dB   -13.11 dB      7:11 08-Prelude to a Kiss
DR11      -1.40 dB   -15.24 dB      7:30 09-Darn That Dream
DR12      -1.40 dB   -14.97 dB      7:39 10-Monk's Dream
--------------------------------------------------------------------------------

Number of tracks:  10
Official DR value: DR11

Samplerate:        96000 Hz
Channels:          2
Bits per sample:   24
Bitrate:           2957 kbps
Codec:             FLAC
================================================================================
Приватный:
Нет (DHT включён)
Размер:
1.30 Гб (1,391,337,316 байт) » файлов: 15
Участники:
0 раздают, 0 качают (0 участников всего)
Внешние участники:
--- [ Обновить ]
No seeders - write personal message to M0p94ok. Нет сидеров - пишите в личку M0p94ok.
23:17
180
Нет комментариев. Ваш будет первым!