Поиск

2019 Blossom Dearie - It's The Lovely...Blossom Dearie! Vol 1 {RevOla} [24-44,1]

2019 Blossom Dearie - It's The Lovely...Blossom Dearie! Vol 1 {RevOla} [24-44,1]
Стили:
Дата издания диска:
19 марта 2019
Издатель (лейбл):
Носитель:
WEB
Формат:
PCM
Тип рипа:
tracks+.cue
Количество каналов:
2.0
Разрядность/ЧД:
24/44,1
Битрейт аудио:
lossless
Время звучания:
01:08:22
Наличие сканов:
web
Наличие водяных знаков:
нет
Страна-производитель диска (релиза):
USA
Релизёр (источник):
M0p94ok

Треклист:

01. Moody's Mood For Love (Remastered) feat. King Pleasure  03:01
02. Lullaby Of Birdland (Remastered) feat. Les Blue Stars  02:51
03. Tout Bas (Speak Low) (Remastered) feat. Les Blue Stars  02:43
04. Gina (Remastered) feat. Les Blue Stars  02:37
05. Plus Je T'embrasse (Heart Of My Heart) (Remastered) feat. Les Blue Stars  02:13
06. Toute Ma Joie (That's My Girl) (Remastered) feat. Les Blue Stars  02:43
07. Les Lavandieres Du Portugal (The Portuguese Washerwomen) (Remastered) feat. Les Blue Stars  02:15
08. Mister L'amour (Mister Sandman) (Remastered) feat. Les Blue Stars  02:16
09. En 1920 (In 1920) (Remastered) feat. Les Blue Stars  02:35
10. Embrasse Moi Bien (Hold Me Close) (Remastered) feat. Les Blue Stars  02:49
11. Lettre A Virginie (Letter To Virginia) (Remastered) feat. Les Blue Stars  03:06
12. La Danse Du Baiser (The Kissing Dance) (Remastered) feat. Les Blue Stars  02:38
13. Mambo Italiano (Remastered) feat. Les Blue Stars  02:10
14. Old Devil Moon (Remastered)  02:32
15. Autumn In New York (Remastered)  03:59
16. Flamingo (Remastered)  03:07
17. There Will Never Be Another You (Remastered)  02:07
18. The Continental (Remastered)  02:42
19. The Boy Next Door (Remastered)  02:50
20. They Can't Take That Away From Me (Remastered)  02:34
21. Moonlight Saving Time (Remastered)  02:34
22. The Surrey With The Fringe On Top (Remastered)  02:56
23. April In Paris (Remastered)  02:55
24. Blue Moon (Remastered)  02:42
25. Down In The Depths (Remastered)  03:27

Лог проверки качества
foobar2000 1.3.16 / Dynamic Range Meter 1.1.1
log date: 2019-03-25 01:02:10

--------------------------------------------------------------------------------
Analyzed: Blossom Dearie / It's The Lovely...Blossom Dearie! Vol 1
--------------------------------------------------------------------------------

DR         Peak         RMS     Duration Track
--------------------------------------------------------------------------------
DR13      -3.09 dB   -18.44 dB      3:01 01-Moody's Mood For Love
DR10      -1.94 dB   -15.65 dB      2:51 02-Lullaby Of Birdland
DR10      -4.31 dB   -16.84 dB      2:44 03-Tout Bas (Speak Low)
DR9       -4.64 dB   -16.72 dB      2:37 04-Gina
DR10      -4.13 dB   -16.16 dB      2:13 05-Plus Je T'embrasse (Heart Of My Heart)
DR9       -4.56 dB   -16.69 dB      2:44 06-Toute Ma Joie (That's My Girl)
DR13      -3.84 dB   -19.53 dB      2:15 07-Les Lavandieres Du Portugal (The Portuguese Washerwomen)
DR12      -2.60 dB   -17.45 dB      2:16 08-Mister L'amour (Mister Sandman)
DR11      -3.61 dB   -16.40 dB      2:36 09-En 1920 (In 1920)
DR10      -2.74 dB   -16.94 dB      2:49 10-Embrasse Moi Bien (Hold Me Close)
DR10      -4.13 dB   -17.54 dB      3:06 11-Lettre A Virginie (Letter To Virginia)
DR11      -3.47 dB   -16.84 dB      2:38 12-La Danse Du Baiser (The Kissing Dance)
DR10      -3.92 dB   -16.94 dB      2:10 13-Mambo Italiano
DR13      -3.75 dB   -19.60 dB      2:33 14-Old Devil Moon
DR16      -2.68 dB   -21.51 dB      3:59 15-Autumn In New York
DR11      -2.56 dB   -17.52 dB      3:07 16-Flamingo
DR12      -2.99 dB   -19.12 dB      2:07 17-There Will Never Be Another You
DR16      -3.14 dB   -22.15 dB      2:42 18-The Continental
DR16      -4.40 dB   -23.72 dB      2:51 19-The Boy Next Door
DR16      -3.80 dB   -23.76 dB      2:34 20-They Can't Take That Away From Me
DR16      -4.24 dB   -24.86 dB      2:35 21-Moonlight Saving Time
DR16      -3.02 dB   -22.99 dB      2:56 22-The Surrey With The Fringe On Top
DR17      -3.50 dB   -25.04 dB      2:56 23-April In Paris
DR15      -3.11 dB   -22.40 dB      2:43 24-Blue Moon
DR15      -3.20 dB   -23.97 dB      3:28 25-Down In The Depths
--------------------------------------------------------------------------------

Number of tracks:  25
Official DR value: DR13

Samplerate:        44100 Hz
Channels:          2
Bits per sample:   24
Bitrate:           1059 kbps
Codec:             FLAC
================================================================================
Приватный:
Да (DHT отключён)
Размер:
554.28 Мб (581,204,961 байт) » файлов: 27
Участники:
3 раздают, 0 качают (3 участников всего)
Внешние участники:
--- [ Обновить ]
No seeders - write personal message to M0p94ok. Нет сидеров - пишите в личку M0p94ok.
23:42
141
Нет комментариев. Ваш будет первым!