Поиск

2011 Brad Shepik Quartet - Across The Way {Songlines} [24-88,2]

2011 Brad Shepik Quartet - Across The Way {Songlines} [24-88,2]
Стили:
Дата записи диска:
13 февраля 2010
Место записи:
Mission Sound Recording, Brooklyn, NY, USA
Дата издания диска:
8 февраля 2011
Номер по каталогу:
SGL 1586-2
Носитель:
WEB
Формат:
PCM
Тип рипа:
tracks+.cue
Количество каналов:
2.0
Разрядность/ЧД:
24/88,2
Битрейт аудио:
lossless
Время звучания:
01:10:04
Наличие сканов:
да
Страна-производитель диска (релиза):
Canada
Релизёр (источник):
M0p94ok
Лог проверки качества
foobar2000 1.3.16 / Dynamic Range Meter 1.1.1
log date: 2019-03-25 16:14:47

--------------------------------------------------------------------------------
Analyzed: Brad Shepik Quartet / Across The Way
--------------------------------------------------------------------------------

DR         Peak         RMS     Duration Track
--------------------------------------------------------------------------------
DR11      -0.20 dB   -13.15 dB      6:53 01-Across the Way
DR11      -0.20 dB   -13.17 dB      7:07 02-Down the Hill
DR10      -0.20 dB   -11.55 dB      8:09 03-Xylo
DR11      -0.20 dB   -13.72 dB      5:56 04-Garden
DR11      -0.20 dB   -12.89 dB      7:08 05-German Taco
DR10      -0.20 dB   -12.48 dB      6:59 06-Marburg
DR10      -0.20 dB   -12.36 dB      6:56 07-Transfer
DR11      -0.20 dB   -14.11 dB      4:23 08-Pfaffenhofen
DR11      -0.20 dB   -12.99 dB      6:41 09-Mambo Terni
DR10      -0.20 dB   -12.92 dB      4:48 10-Your Egg Roll
DR10      -0.20 dB   -13.27 dB      5:11 11-Train Home
--------------------------------------------------------------------------------

Number of tracks:  11
Official DR value: DR10

Samplerate:        88200 Hz
Channels:          2
Bits per sample:   24
Bitrate:           2597 kbps
Codec:             FLAC
================================================================================
No seeders - write personal message to M0p94ok. Any questions - support@pro-jazz.com.
Нет сидеров - пишите в личку M0p94ok. Есть вопросы - support@pro-jazz.com
12:35
182
Нет комментариев. Ваш будет первым!