Поиск

1959 Buddy Collette And The Poll Winners - Porgy & Bess (2018) {Interlude MO-505} [24-44,1]

1959 Buddy Collette And The Poll Winners - Porgy & Bess (2018) {Interlude MO-505} [24-44,1]
Стили:
Номер по каталогу:
Interlude MO-505
Носитель:
WEB
Формат:
PCM
Тип рипа:
tracks+.cue
Количество каналов:
2.0
Разрядность/ЧД:
24/44,1
Битрейт аудио:
lossless
Время звучания:
00:28:51
Наличие сканов:
web
Наличие водяных знаков:
нет
Страна-производитель диска (релиза):
USA
Релизёр (источник):
M0p94ok

Треклист:

1. Bess, Oh where is my Bess  03:01
2. My Man's Gone Now  03:30
3. Summertime  04:20
4. It Ain't Necessarily So  03:32
5. I Got Plenty O'Nuttin  02:42
6. There's a Boat Dat's Leavin' Soon For New York  03:26
7. Bess You Is My Woman  03:32
8. A Woman Is A Sometime Thing  04:38

Доп. инфо:

Представленная на этой записи группа "Poll Winners" не является тем же составом "Poll-Winners", записывавшимся на дисках лейбла Contemporary Records - Barney Kessel, Ray Brown и Shelly Manne.

Лог проверки качества
foobar2000 1.3.16 / Dynamic Range Meter 1.1.1
log date: 2019-03-25 16:14:51

--------------------------------------------------------------------------------
Analyzed: Buddy Collette and The Poll Winners / Modern Interpretations: Porgy & Bess
--------------------------------------------------------------------------------

DR         Peak         RMS     Duration Track
--------------------------------------------------------------------------------
DR13      -2.72 dB   -21.63 dB      3:02 01-Bess, Oh where is my Bess
DR13      -5.88 dB   -25.66 dB      3:32 02-My Man's Gone Now
DR13      -3.90 dB   -23.62 dB      4:20 03-Summertime
DR17      -4.43 dB   -26.38 dB      3:32 04-It Ain't Necessarily So
DR16      -4.75 dB   -24.65 dB      2:42 05-I Got Plenty O'Nuttin
DR14      -5.09 dB   -26.98 dB      3:26 06-There's a Boat Dat's Leavin' Soon For New York
DR18      -4.00 dB   -26.64 dB      3:30 07-Bess You Is My Woman
DR19      -4.00 dB   -27.26 dB      4:48 08-A Woman Is A Sometime Thing
--------------------------------------------------------------------------------

Number of tracks:  8
Official DR value: DR16

Samplerate:        44100 Hz
Channels:          2
Bits per sample:   24
Bitrate:           1153 kbps
Codec:             FLAC
================================================================================
Приватный:
Да (DHT отключён)
Размер:
248.45 Мб (260,515,371 байт) » файлов: 10
Участники:
3 раздают, 0 качают (3 участников всего)
Внешние участники:
--- [ Обновить ]
No seeders - write personal message to M0p94ok. Нет сидеров - пишите в личку M0p94ok.
15:25
219
Нет комментариев. Ваш будет первым!