Поиск

2012 BATIST - Traumstoff {Neuklang} [24-44,1]

2012 BATIST - Traumstoff {Neuklang} [24-44,1]
Издатель (лейбл):
Номер по каталогу:
NCD4062
Носитель:
WEB
Формат:
PCM
Тип рипа:
tracks+.cue
Количество каналов:
2.0
Разрядность/ЧД:
24/44,1
Битрейт аудио:
lossless
Время звучания:
01:05:33
Наличие сканов:
да
Наличие водяных знаков:
нет
Страна-производитель диска (релиза):
Germany
Релизёр (источник):
M0p94ok

Треклист:

01    Paçoca    4:16
02    I Was Brought To My Senses    5:48
03    Bachianas Brasileiras No. 5 - Aria (Cantilena)    4:49
04    Pe De Moleque    4:42
05    Ave Maria / All The Things You Are    6:25
06    Gymnopédie No. 1    7:23
07    Fragile    6:59
08    Invention No. 4    5:20
09    Bimini    4:25
10    Pavane    7:01
11    Alfonsina Y El Mar    5:16
12    The Waltz    3:09

Лог проверки качества
foobar2000 1.3.16 / Dynamic Range Meter 1.1.1
log date: 2019-03-25 16:14:29

--------------------------------------------------------------------------------
Analyzed: BATIST / Traumstoff
--------------------------------------------------------------------------------

DR         Peak         RMS     Duration Track
--------------------------------------------------------------------------------
DR9       -1.83 dB   -13.91 dB      4:16 01-Paçoca
DR11      -0.33 dB   -14.75 dB      5:49 02-I Was Brought to My Senses
DR12      -0.29 dB   -16.17 dB      4:50 03-Bachianas Brasileiras No. 5, Aria (Cantilena)
DR11      -0.29 dB   -14.74 dB      4:43 04-Pe de Moleque
DR11      -2.43 dB   -15.93 dB      6:26 05-Ave Maria / All the Things You Are
DR12      -2.52 dB   -18.90 dB      7:23 06-Gymnopédie No. 1
DR12      -0.14 dB   -16.47 dB      7:00 07-Fragile
DR11      -1.91 dB   -16.17 dB      5:21 08-Invention No. 4 in D Minor, BWV 775
DR12      -0.83 dB   -15.70 dB      4:25 09-Bimini
DR11      -0.25 dB   -14.12 dB      7:01 10-Pavane, Op. 50
DR12      -1.88 dB   -16.96 dB      5:17 11-Alfonsina y el Mar
DR11      -4.73 dB   -18.37 dB      3:09 12-The Waltz
--------------------------------------------------------------------------------

Number of tracks:  12
Official DR value: DR11

Samplerate:        44100 Hz
Channels:          2
Bits per sample:   24
Bitrate:           646 kbps
Codec:             FLAC
================================================================================
Приватный:
Да (DHT отключён)
Размер:
320.05 Мб (335,600,975 байт) » файлов: 15
Участники:
3 раздают, 0 качают (3 участников всего)
Внешние участники:
--- [ Обновить ]
No seeders - write personal message to M0p94ok. Any questions - support@pro-jazz.com.
Нет сидеров - пишите в личку M0p94ok. Есть вопросы - support@pro-jazz.com
00:03
177
Нет комментариев. Ваш будет первым!