Поиск

1961 Sarah Vaughan - After Hours (2019) {High Definition Tape Transfers} [DSD256]

1961 Sarah Vaughan - After Hours (2019) {High Definition Tape Transfers} [DSD256]
Стили:
Издатель (лейбл):
Номер по каталогу:
HDTT7914
Битрейт аудио:
lossless
Треклист:

01. My Favorite Things 3:47
02. Ev'ry Time We Say Goodbye 2:21
03. Wonder Why 4:06
04. Easy To Love 2:05
05. Sophisticated Lady 3:47
06. Great Day 2:00
07. Ill Wind 3:13
08. If Love Is Good To Me 2:11
09. In A Sentimental Mood 4:00
10. Vanity 4:15

Доп. инфо:

Формат записи/Источник записи: [DSD][OF]
Наличие водяных знаков: Нет
Издание: Reissue
Год издания/переиздания диска: 1961 / 2019
Продолжительность: 31:41
Наличие сканов в содержимом раздачи: Буклет PDF

Контейнер: DSF (*.dsf)
Тип рипа: tracks
Разрядность: 256 (11,29 MHz/1 Bit)
Формат: DSD
Количество каналов: 2.0

Лог проверки качества
foobar2000 1.4 / Dynamic Range Meter 1.1.1
log date: 2020-09-27 20:55:41
--------------------------------------------------------------------------------
Analyzed:  Sarah Vaughan - After Hours
--------------------------------------------------------------------------------
DR           Peak          RMS     Duration        Track
--------------------------------------------------------------------------------
DR9     -8.33 dB   -21.44 dB   2:46   01-My Favorite Things
DR11   -7.36 dB   -20.91 dB   2:26   02-Ev'ry Time We Say Goodbye
DR9     -5.06 dB   -20.07 dB   4:20   03-Wonder Why
DR11   -6.52 dB   -20.98 dB   2:12   04-Easy To Love
DR9     -6.74 dB   -20.72 dB   3:52   05-Sophisticated Lady
DR12   -6.16 dB   -21.30 dB   2:18   06-Great Day
DR10   -7.43 dB   -22.53 dB   3:12   07-Ill Wind
DR10   -7.58 dB   -21.57 dB   2:12   08-If Love Is Good To Me
DR10   -6.99 dB   -21.81 dB   4:05   09-In A Sentimental Mood
DR10   -7.11 dB   -21.51 dB   4:19   10-Vanity
--------------------------------------------------------------------------------
Number of tracks: 10
Official DR value: DR10

Samplerate: 11289600 Hz / PCM Samplerate: 176400 Hz
Channels: 2
Bits per sample: 1
Bitrate: 22579 kbps
Codec: DSD256
=================================================
Приватный:
Нет (DHT включён)
Размер:
5.00 Гб (5,367,718,477 байт) » файлов: 21
Участники:
0 раздают, 0 качают (0 участников всего)
Внешние участники:
17 раздают, 5 качают (22 участников всего) [ Обновить ]
For power users only: no seeders - write to support@pro-jazz.com. Для power user: нет сидеров - пишите на support@pro-jazz.com.
00:27
151
Нет комментариев. Ваш будет первым!