Поиск

1968 Thelonious Monk - Palo Alto (2020) {Legacy} [24-44,1]

1968 Thelonious Monk - Palo Alto (2020) {Legacy} [24-44,1]
Стили:
Дата записи диска:
27 октября 1968
Место записи:
Palo Alto High School, Palo Alto, CA, USA
Дата издания диска:
18 сентября 2020
Издатель (лейбл):
Номер по каталогу:
B0032181-01
Битрейт аудио:
lossless

Треклист:

01 - Ruby, My Dear 07:00
02 - Well, You Needn't 13:16
03 - Don't Blame Me 06:36
04 - Blue Monk 14:01
05 - Epistrophy 04:25
06 - I Love You Sweetheart Of All My Dreams 02:02

Доп. инфо:

Формат записи/Источник записи: [TR24][OF]
Издание: Remastered
Год издания/переиздания диска: 1968/2020
Издатель (лейбл): Legacy Recordings
Продолжительность: 00:47:20
Наличие сканов в содержимом раздачи: Нет

Контейнер: FLAC (*.flac)
Тип рипа: tracks
Разрядность: 24/44,1
Количество каналов: 2.0

Источник (релизер): Qobuz

Лог проверки качества
foobar2000 1.4.3 / Dynamic Range Meter 1.1.1
log date: 2020-09-18 19:07:51

--------------------------------------------------------------------------------
Analyzed: Thelonious Monk / Palo Alto
--------------------------------------------------------------------------------

DR         Peak         RMS     Duration Track
--------------------------------------------------------------------------------
DR12      -0.15 dB   -14.75 dB      7:00 01-Ruby, My Dear  (Live At Palo Alto High School, Palo Alto, CA / 1968)
DR11      -0.11 dB   -12.84 dB     13:17 02-Well, You Needn't  (Live At Palo Alto High School, Palo Alto, CA / 1968)
DR16      -1.37 dB   -19.81 dB      6:36 03-Don't Blame Me  (Live At Palo Alto High School, Palo Alto, CA / 1968)
DR11      -0.13 dB   -13.13 dB     14:02 04-Blue Monk  (Live At Palo Alto High School, Palo Alto, CA / 1968)
DR10      -0.11 dB   -11.98 dB      4:26 05-Epistrophy  (Live At Palo Alto High School, Palo Alto, CA / 1968)
DR12      -2.58 dB   -18.36 dB      2:02 06-I Love You Sweetheart Of All My Dreams  (Live At Palo Alto High School, Palo Alto, CA / 1968)
--------------------------------------------------------------------------------

Number of tracks:  6
Official DR value: DR12

Samplerate:        44100 Hz
Channels:          2
Bits per sample:   24
Bitrate:           1440 kbps
Codec:             FLAC
================================================================================
Приватный:
Нет (DHT включён)
Размер:
514.61 Мб (539,608,101 байт) » файлов: 11
Участники:
0 раздают, 0 качают (0 участников всего)
Внешние участники:
30 раздают, 10 качают (40 участников всего) [ Обновить ]
No seeders - write personal message to M0p94ok. Нет сидеров - пишите в личку M0p94ok.
15:21
143
Нет комментариев. Ваш будет первым!